<?xml version="1.0" standalone="no"?>
<!DOCTYPE svg PUBLIC "-//W3C//DTD SVG 1.1//EN" "http://www.w3.org/Graphics/SVG/1.1/DTD/svg11.dtd" >
<svg xmlns="http://www.w3.org/2000/svg" xmlns:xlink="http://www.w3.org/1999/xlink" version="1.1">
<metadata>
Created by FontForge 20161013 at Tue Jan 14 12:28:41 2014
 By ,,,
Copyright \(c\) 2010 by Ryoichi Tsunekawa. All rights reserved.
</metadata>
<defs>
<font id="BebasNeue-Thin" horiz-adv-x="368" >
  <font-face 
    font-family="Bebas Neue Thin"
    font-weight="200"
    font-stretch="normal"
    units-per-em="1000"
    panose-1="0 0 5 0 0 0 0 0 0 0"
    ascent="750"
    descent="-250"
    x-height="700"
    cap-height="700"
    bbox="-48 -179 795 872"
    underline-thickness="50"
    underline-position="-160"
    unicode-range="U+000D-F6C3"
  />
<missing-glyph horiz-adv-x="548" 
d="M50 700h448v-700h-448v700zM272 361l-146 -301h10l140 291l141 -291h9l-145 301l135 277h-9l-131 -268l-131 268h-9z" />
    <glyph glyph-name=".notdef" horiz-adv-x="548" 
d="M50 700h448v-700h-448v700zM272 361l-146 -301h10l140 291l141 -291h9l-145 301l135 277h-9l-131 -268l-131 268h-9z" />
    <glyph glyph-name=".null" horiz-adv-x="0" 
 />
    <glyph glyph-name="nonmarkingreturn" unicode="&#xd;" horiz-adv-x="155" 
 />
    <glyph glyph-name="NULL" horiz-adv-x="0" 
 />
    <glyph glyph-name="NULL" horiz-adv-x="0" 
 />
    <glyph glyph-name="space" unicode=" " horiz-adv-x="155" 
 />
    <glyph glyph-name="exclam" unicode="!" horiz-adv-x="90" 
d="M40 294v407h10v-407l-1 -139h-8zM50 77v-77h-10v77h10z" />
    <glyph glyph-name="quotedbl" unicode="&#x22;" horiz-adv-x="139" 
d="M50 701v-155h-10v155h10zM99 701v-155h-10v155h10z" />
    <glyph glyph-name="numbersign" unicode="#" horiz-adv-x="416" 
d="M309 496l-26 -252h66v-9h-67l-25 -235h-10l25 235h-147l-25 -235h-10l25 235h-75v9h76l26 252h-76v9h77l20 196h10l-20 -196h147l20 196h10l-20 -196h66v-9h-67zM299 496h-147l-26 -252h147z" />
    <glyph glyph-name="dollar" unicode="$" horiz-adv-x="367" 
d="M190 705q38 -1 64 -15.5t42.5 -38t23.5 -55t7 -65.5v-12h-10v12q0 33 -6.5 62.5t-22 52t-41 36t-62.5 13.5t-62.5 -13t-41 -35.5t-22 -52t-6.5 -62.5q0 -46 20.5 -77.5t51 -56t66 -46t66 -46.5t51 -57.5t20.5 -79.5q0 -35 -7.5 -66t-24 -54.5t-42.5 -38t-64 -15.5v-58
h-10v58q-39 1 -65.5 15t-43 37.5t-24 55t-7.5 66.5v33h10v-33q0 -34 7 -63.5t22.5 -52t41 -35.5t63.5 -13q37 0 63 13t41.5 35.5t22.5 52t7 63.5q0 45 -20.5 76.5t-51 55.5t-66 45.5t-66 46.5t-51 58t-20.5 81q0 37 7.5 68t24 54t42.5 36t63 15v65h10v-65z" />
    <glyph glyph-name="percent" unicode="%" horiz-adv-x="593" 
d="M128 701q25 0 42 -10t27 -26t14.5 -36.5t4.5 -42.5v-203q0 -22 -4.5 -42.5t-14.5 -36.5t-27 -25.5t-42 -9.5t-42 9.5t-27 25.5t-14.5 36.5t-4.5 42.5v203q0 22 4.5 42.5t14.5 36.5t27 26t42 10zM439 701l-276 -701h-11l276 701h11zM128 691q-23 0 -38 -9t-24 -24
t-12.5 -34t-3.5 -38v-203q0 -20 3.5 -38.5t12.5 -33t24 -23.5t38 -9t38 9t24 23.5t12.5 33t3.5 38.5v203q0 19 -3.5 38t-12.5 34t-24 24t-38 9zM465 428q25 0 42 -9.5t27.5 -25.5t14.5 -36.5t4 -42.5v-199q0 -22 -4 -42.5t-14.5 -36.5t-27.5 -26t-42 -10t-42 10t-27 26
t-14.5 36.5t-4.5 42.5v199q0 22 4.5 42.5t14.5 36.5t27 25.5t42 9.5zM465 418q-23 0 -38 -9t-24 -23.5t-12.5 -33.5t-3.5 -38v-199q0 -20 3.5 -38.5t12.5 -33.5t24 -24t38 -9t38 9t24 24t12.5 33.5t3.5 38.5v199q0 19 -3.5 38t-12.5 33.5t-24 23.5t-38 9z" />
    <glyph glyph-name="ampersand" unicode="&#x26;" horiz-adv-x="397" 
d="M209 690q-81 0 -120 -42t-39 -122v-20q0 -25 7.5 -49t21.5 -42.5t35 -30.5t48 -14h142v78h10v-78h43v-9h-43v-265q0 -26 2.5 -49.5t18.5 -46.5h-12q-11 18 -14.5 35.5t-3.5 37.5q-16 -39 -50 -58.5t-76 -19.5q-37 0 -63.5 12.5t-43 34.5t-24.5 51.5t-8 64.5v63q0 24 6 47
t18.5 42t31.5 33.5t44 21.5q-26 6 -45 20t-31 33t-18 42t-6 46v20q0 84 41.5 129t127.5 45h85v-10h-85zM169 361q-29 -3 -51 -15t-37 -30.5t-23 -43t-8 -51.5v-63q0 -32 7 -60t22.5 -48.5t40 -32.5t59.5 -12q54 0 89.5 32t35.5 87v237h-135z" />
    <glyph glyph-name="quotesingle" unicode="'" horiz-adv-x="90" 
d="M50 701v-155h-10v155h10z" />
    <glyph glyph-name="parenleft" unicode="(" horiz-adv-x="220" 
d="M165 691q-36 0 -58 -11t-35 -30.5t-17.5 -46.5t-4.5 -58v-389q0 -32 4.5 -58.5t17 -46t35 -30.5t58.5 -11h15v-10h-15q-38 0 -62.5 11.5t-38.5 32.5t-19 49.5t-5 62.5v389q0 34 5.5 62.5t19.5 49.5t38 32.5t62 11.5h15v-10h-15z" />
    <glyph glyph-name="parenright" unicode=")" horiz-adv-x="220" 
d="M55 701q38 0 62 -11.5t38 -32.5t19.5 -49.5t5.5 -62.5v-389q0 -34 -5 -62.5t-19 -49.5t-38.5 -32.5t-62.5 -11.5h-15v10h15q36 0 58.5 11t35 30.5t17 46t4.5 58.5v389q0 31 -4.5 58t-17.5 46.5t-35 30.5t-58 11h-15v10h15z" />
    <glyph glyph-name="asterisk" unicode="*" horiz-adv-x="393" 
d="M203 538l83 -119l-8 -6l-82 119l-82 -118l-8 5l83 119l-139 39l3 10l138 -41v146h10v-146l139 38l3 -10z" />
    <glyph glyph-name="plus" unicode="+" horiz-adv-x="384" 
d="M197 345v-150h-10v150h-147v10h147v148h10v-148h147v-10h-147z" />
    <glyph glyph-name="comma" unicode="," horiz-adv-x="105" 
d="M56 0h-1v78h10v-78l-18 -62h-7z" />
    <glyph glyph-name="hyphen" unicode="-" horiz-adv-x="254" 
d="M40 355h174v-9h-174v9z" />
    <glyph glyph-name="period" unicode="." horiz-adv-x="90" 
d="M50 78v-78h-10v78h10z" />
    <glyph glyph-name="slash" unicode="/" horiz-adv-x="366" 
d="M326 700l-276 -700h-10l276 700h10z" />
    <glyph glyph-name="zero" unicode="0" horiz-adv-x="373" 
d="M40 528q0 36 8 68.5t25.5 56.5t45.5 38t68 14t67.5 -14t45 -38t25.5 -56.5t8 -68.5v-355q0 -36 -8 -68.5t-25.5 -57t-45 -38.5t-67.5 -14t-68 14t-45.5 38.5t-25.5 57t-8 68.5v355zM50 173q0 -34 7 -64.5t23.5 -53.5t42.5 -36.5t64 -13.5t64 13.5t42 36.5t23 53.5t7 64.5
v355q0 34 -7 64.5t-23 53.5t-42 36.5t-64 13.5t-64 -13.5t-42.5 -36.5t-23.5 -53.5t-7 -64.5v-355z" />
    <glyph glyph-name="one" unicode="1" horiz-adv-x="216" 
d="M161 683q-17 -39 -47.5 -64.5t-73.5 -30.5v10q45 5 74 33t43 70h14v-701h-10v683z" />
    <glyph glyph-name="two" unicode="2" horiz-adv-x="367" 
d="M183 705q42 0 69.5 -14.5t44 -39t23.5 -57.5t7 -69q0 -48 -20 -86.5t-50.5 -74t-66 -70.5t-66.5 -76t-52 -91t-22 -114v-3h274v-10h-284v5q0 67 20.5 119t51.5 94.5t66.5 78t66.5 71t51.5 73t20.5 84.5q0 34 -6 65t-21.5 54.5t-41.5 37.5t-65 14q-38 0 -63.5 -14.5
t-41 -38.5t-22 -55.5t-6.5 -64.5v-33h-10v33q0 36 7 68.5t24 58t44 40.5t68 15z" />
    <glyph glyph-name="three" unicode="3" 
d="M184 705q40 0 67.5 -14t44.5 -38.5t24.5 -56.5t7.5 -68v-17q0 -25 -7 -48t-20.5 -42t-32.5 -33.5t-43 -21.5q51 -13 77 -51t26 -89v-53q0 -36 -7.5 -68.5t-24.5 -56.5t-44.5 -38.5t-67.5 -14.5t-67.5 14.5t-44.5 38.5t-24.5 56.5t-7.5 68.5v29h10v-29q0 -34 6.5 -64.5
t22.5 -53.5t41.5 -36.5t63.5 -13.5t63.5 13.5t41.5 36.5t22.5 53.5t6.5 64.5v53q0 58 -31.5 94.5t-90.5 40.5h-53v9h53q28 2 50.5 14t38.5 31t24.5 44t8.5 52v17q0 34 -6.5 64.5t-22.5 53.5t-41.5 36.5t-63.5 13.5t-63.5 -13.5t-41.5 -36.5t-22.5 -53.5t-6.5 -64.5v-18h-10
v18q0 36 7.5 68t24.5 56.5t44.5 38.5t67.5 14z" />
    <glyph glyph-name="four" unicode="4" horiz-adv-x="407" 
d="M304 170v-170h-10v170h-254v11l250 520h14v-521h63v-10h-63zM50 180h244v506z" />
    <glyph glyph-name="five" unicode="5" 
d="M62 377q37 72 122 72q40 0 67.5 -14.5t44.5 -39t24.5 -56.5t7.5 -67v-99q0 -36 -7.5 -68t-24.5 -56.5t-44.5 -39t-67.5 -14.5t-67.5 14.5t-44.5 39t-24.5 56.5t-7.5 68v26h10v-26q0 -33 7 -63.5t22.5 -54t41 -37t63.5 -13.5q37 0 63 13.5t41.5 37t22.5 54t7 63.5v99
q0 33 -7 63.5t-22.5 53.5t-41.5 36.5t-63 13.5q-45 0 -76.5 -23t-47.5 -64v-6h-10l18 355h247v-10h-238z" />
    <glyph glyph-name="six" unicode="6" horiz-adv-x="374" 
d="M187 705q40 0 67.5 -13.5t44.5 -37t24.5 -55t7.5 -67.5v-3h-10v3q0 34 -6.5 63.5t-22.5 52t-41.5 35.5t-63.5 13t-64 -13.5t-42.5 -36.5t-23.5 -53.5t-7 -64.5v-217q15 49 49.5 75t87.5 26q40 0 68 -14t45.5 -38.5t25.5 -56.5t8 -68v-62q0 -36 -8 -68.5t-25.5 -57
t-45.5 -38.5t-68 -14t-68 14t-45.5 38.5t-25.5 57t-8 68.5v355q0 36 8 68.5t25.5 56.5t45.5 38t68 14zM187 402q-38 0 -64 -13.5t-42.5 -36.5t-23.5 -53t-7 -64v-62q0 -34 7 -64.5t23.5 -53.5t42.5 -36.5t64 -13.5t64 13.5t42.5 36.5t23.5 53.5t7 64.5v62q0 34 -7 64
t-23.5 53t-42.5 36.5t-64 13.5z" />
    <glyph glyph-name="seven" unicode="7" 
d="M317 691h-277v10h288v-11l-216 -690h-11z" />
    <glyph glyph-name="eight" unicode="8" horiz-adv-x="383" 
d="M191 705q39 0 67.5 -12t47 -34t28 -52.5t9.5 -67.5v-23q0 -56 -24 -97.5t-82 -52.5q59 -12 82.5 -53.5t23.5 -99.5v-46q0 -37 -9 -68.5t-27.5 -54.5t-47 -36t-68.5 -13q-39 0 -67.5 13t-47 36t-27.5 54.5t-9 68.5v46q0 60 23.5 100t84.5 53q-59 11 -83.5 52t-24.5 98v23
q0 74 37 120t114 46zM191 696q-72 0 -106.5 -44t-34.5 -113v-23q0 -70 34.5 -108t106.5 -38t107 38t35 108v23q0 69 -34.5 113t-107.5 44zM191 360q-73 0 -107 -37.5t-34 -109.5v-46q0 -35 8 -64.5t25.5 -51.5t44 -34t63.5 -12t64 12t44.5 34t25.5 51.5t8 64.5v46
q0 72 -34 109.5t-108 37.5z" />
    <glyph glyph-name="nine" unicode="9" horiz-adv-x="374" 
d="M187 706q40 0 68 -14t45.5 -38.5t25.5 -57t8 -68.5v-355q0 -36 -8 -68.5t-25.5 -57t-45.5 -38.5t-68 -14t-68 13.5t-45.5 37.5t-25.5 56t-8 68v4h10v-4q0 -34 7.5 -64t23.5 -52.5t42 -35.5t64 -13t64 13.5t42.5 36.5t23.5 53.5t7 64.5v217q-15 -49 -49.5 -75t-87.5 -26
q-40 0 -68 14t-45.5 38.5t-25.5 56.5t-8 68v62q0 36 8 68.5t25.5 57t45.5 38.5t68 14zM187 696q-38 0 -64 -13.5t-42.5 -36.5t-23.5 -53.5t-7 -64.5v-62q0 -34 7 -64t23.5 -53t42.5 -36.5t64 -13.5t64 13.5t42.5 36.5t23.5 53t7 64v62q0 34 -7 64.5t-23.5 53.5t-42.5 36.5
t-64 13.5z" />
    <glyph glyph-name="colon" unicode=":" horiz-adv-x="90" 
d="M50 459v-78h-10v78h10zM50 78v-78h-10v78h10z" />
    <glyph glyph-name="semicolon" unicode=";" horiz-adv-x="105" 
d="M65 459v-78h-10v78h10zM56 0h-1v78h10v-78l-18 -62h-7z" />
    <glyph glyph-name="less" unicode="&#x3c;" horiz-adv-x="356" 
d="M316 204l-276 141v10l276 141v-11l-264 -135l264 -135v-11z" />
    <glyph glyph-name="equal" unicode="=" horiz-adv-x="254" 
d="M214 426v-9h-174v9h174zM214 326v-9h-174v9h174z" />
    <glyph glyph-name="greater" unicode="&#x3e;" horiz-adv-x="356" 
d="M40 215l264 135l-264 135v11l276 -141v-10l-276 -141v11z" />
    <glyph glyph-name="question" unicode="?" horiz-adv-x="364" 
d="M182 705q41 0 68.5 -14.5t44 -39.5t23 -57.5t6.5 -68.5t-11.5 -64t-28.5 -52.5t-37.5 -47.5t-37.5 -48t-28.5 -54t-11.5 -66q0 -18 5 -36h-10q-5 20 -5 36q0 38 11.5 68t29 55.5t37.5 48.5t37 47t28.5 51.5t11.5 61.5t-6 65t-21 54.5t-40.5 37.5t-64.5 14
q-38 0 -63.5 -14.5t-40.5 -39t-21.5 -55.5t-6.5 -64v-33h-10v33q0 35 7 68t23.5 58.5t43.5 40.5t68 15zM173 77v-77h-10v77h10z" />
    <glyph glyph-name="at" unicode="@" horiz-adv-x="688" 
d="M388 724q67 0 116 -19t81 -55t47.5 -87t15.5 -115q0 -25 -2.5 -56t-9.5 -64t-18.5 -64.5t-29 -56t-42 -40t-56.5 -15.5q-31 0 -44.5 22t-14.5 50q-15 -38 -43 -61.5t-71 -23.5q-33 0 -53 13.5t-31 35.5t-14 49t0 54l10 98q3 28 12 54t24.5 45.5t38.5 31t54 11.5
q78 0 96 -75l7 69h10l-30 -283q-1 -13 0.5 -27t7 -26t15.5 -19.5t26 -7.5q30 0 53 15t39.5 39t27.5 54.5t17 62t8.5 61.5t2.5 53q0 125 -60 196t-190 71q-92 0 -156.5 -37t-105 -98t-58.5 -138t-18 -158q0 -149 71 -230.5t224 -81.5q46 0 93 12t82 41v-13q-39 -27 -83 -38.5
t-92 -11.5q-158 0 -231.5 84.5t-73.5 237.5q0 83 19 162t60.5 141t107.5 100t161 38zM358 521q-29 0 -50.5 -11t-35.5 -29.5t-22 -42.5t-11 -50l-10 -99q-3 -24 -1 -49t12 -45.5t28.5 -33t48.5 -12.5t51.5 12.5t35.5 32.5t21.5 45.5t10.5 51.5l11 98q3 25 0.5 48.5t-12.5 42
t-28.5 30t-48.5 11.5z" />
    <glyph glyph-name="A" unicode="A" horiz-adv-x="452" 
d="M93 170l-43 -170h-10l177 701h14l181 -701h-10l-44 170h-265zM96 180h259l-131 508z" />
    <glyph glyph-name="B" unicode="B" horiz-adv-x="362" 
d="M177 700q75 0 103 -37t28 -106v-48q0 -59 -21 -94t-83 -42q65 -8 91.5 -48t26.5 -102v-63q0 -74 -33 -117t-112 -43h-137v700h137zM147 378q39 0 67.5 5.5t47 19.5t27.5 39.5t9 66.5v48q0 33 -5.5 57.5t-19.5 41.5t-37.5 25.5t-58.5 8.5h-127v-312h97zM177 10
q74 0 104.5 40t30.5 110v63q0 80 -38.5 112.5t-115.5 32.5h-108v-358h127z" />
    <glyph glyph-name="C" unicode="C" 
d="M184 705q40 0 67.5 -14.5t44.5 -39t24.5 -56.5t7.5 -67v-53h-10v53q0 33 -7 63.5t-22.5 53.5t-41.5 36.5t-63 13.5q-38 0 -63.5 -13.5t-41 -36.5t-22.5 -53.5t-7 -63.5v-356q0 -33 7 -63.5t22.5 -53.5t41 -36.5t63.5 -13.5q37 0 63 13.5t41.5 36.5t22.5 53.5t7 63.5v74
h10v-74q0 -35 -7.5 -67t-24.5 -56.5t-44.5 -39t-67.5 -14.5t-67.5 14.5t-44.5 39t-24.5 56.5t-7.5 67v356q0 35 7.5 67t24.5 56.5t44.5 39t67.5 14.5z" />
    <glyph glyph-name="D" unicode="D" horiz-adv-x="372" 
d="M182 700q40 0 68.5 -13.5t46.5 -37t26.5 -55.5t8.5 -69v-351q0 -36 -8.5 -68t-26.5 -55.5t-46 -37t-68 -13.5h-143v700h142zM183 10q38 0 64.5 12.5t43 35t24 52t7.5 64.5v351q0 35 -7.5 65t-24.5 52.5t-43.5 35t-64.5 12.5h-132v-680h133z" />
    <glyph glyph-name="E" unicode="E" horiz-adv-x="342" 
d="M263 360v-10h-213v-340h252v-10h-262v700h262v-10h-252v-330h213z" />
    <glyph glyph-name="F" unicode="F" horiz-adv-x="332" 
d="M253 342v-10h-203v-332h-10v700h252v-10h-242v-348h203z" />
    <glyph glyph-name="G" unicode="G" 
d="M184 705q40 0 67.5 -14.5t44.5 -39t24.5 -56.5t7.5 -67v-44h-10v44q0 33 -7 63.5t-22.5 53.5t-41.5 36.5t-63 13.5q-38 0 -63.5 -13.5t-41 -36.5t-22.5 -53.5t-7 -63.5v-356q0 -33 7 -63.5t22.5 -53.5t41 -36.5t63.5 -13.5q37 0 63 13.5t41.5 36.5t22.5 53.5t7 63.5v163
h-118v10h128v-173q0 -35 -7.5 -67t-24.5 -56.5t-44.5 -39t-67.5 -14.5t-67.5 14.5t-44.5 39t-24.5 56.5t-7.5 67v356q0 35 7.5 67t24.5 56.5t44.5 39t67.5 14.5z" />
    <glyph glyph-name="H" unicode="H" horiz-adv-x="370" 
d="M50 345v-345h-10v700h10v-345h270v345h10v-700h-10v345h-270z" />
    <glyph glyph-name="I" unicode="I" horiz-adv-x="90" 
d="M50 700v-700h-10v700h10z" />
    <glyph glyph-name="J" unicode="J" horiz-adv-x="252" 
d="M40 10q11 -1 21.5 -0.5t20.5 1.5q63 6 91.5 43.5t28.5 116.5v529h10v-529q0 -85 -32.5 -125t-97.5 -45q-10 -1 -20.5 -1.5t-21.5 0.5v10z" />
    <glyph glyph-name="K" unicode="K" horiz-adv-x="399" 
d="M106 357l-56 -82v-275h-10v700h10v-407l276 407h12l-226 -334l247 -366h-12z" />
    <glyph glyph-name="L" unicode="L" horiz-adv-x="332" 
d="M40 0v700h10v-690h242v-10h-252z" />
    <glyph glyph-name="M" unicode="M" horiz-adv-x="485" 
d="M249 2h-14l-185 688v-690h-10v700h18l184 -687l186 687h17v-700h-10v690z" />
    <glyph glyph-name="N" unicode="N" horiz-adv-x="371" 
d="M50 0h-10v700h17l264 -687v687h10v-700h-15l-266 690v-690z" />
    <glyph glyph-name="O" unicode="O" horiz-adv-x="373" 
d="M40 528q0 36 8 68t25.5 56.5t45 38.5t67.5 14t68 -14t45.5 -38.5t25.5 -56.5t8 -68v-356q0 -36 -8 -68t-25.5 -56.5t-45.5 -38.5t-68 -14t-67.5 14t-45 38.5t-25.5 56.5t-8 68v356zM50 172q0 -34 7 -64.5t23 -53t42 -36t64 -13.5t64 13.5t42.5 36t23.5 53t7 64.5v356
q0 34 -7 64t-23.5 53t-42.5 36.5t-64 13.5t-64 -13.5t-42 -36.5t-23 -53t-7 -64v-356z" />
    <glyph glyph-name="P" unicode="P" horiz-adv-x="357" 
d="M175 700q40 0 67.5 -13t44 -35.5t23.5 -53t7 -66.5v-68q0 -83 -38 -122.5t-123 -39.5h-106v-302h-10v700h135zM156 312q81 0 116 36.5t35 115.5v68q0 34 -6.5 63t-21.5 50t-40.5 33t-63.5 12h-125v-378h106z" />
    <glyph glyph-name="Q" unicode="Q" horiz-adv-x="414" 
d="M187 705q40 0 68 -14t45.5 -38.5t25.5 -56.5t8 -68v-356q0 -40 -9.5 -74t-30.5 -59q12 -20 29 -27.5t40 -7.5h11v-10h-11q-25 0 -43.5 9t-32.5 29q-17 -17 -42 -27t-58 -10q-40 0 -68 14t-45.5 38.5t-25.5 56.5t-8 68v356q0 36 8 68t25.5 56.5t45.5 38.5t68 14zM187 695
q-38 0 -64 -13.5t-42.5 -36.5t-23.5 -53t-7 -64v-356q0 -34 7 -64.5t23.5 -53t42.5 -36t64 -13.5t64 13.5t42.5 36t23.5 53t7 64.5v356q0 34 -7 64t-23.5 53t-42.5 36.5t-64 13.5z" />
    <glyph glyph-name="R" unicode="R" horiz-adv-x="377" 
d="M175 700q77 0 109.5 -43t32.5 -114v-63q0 -66 -28 -102.5t-89 -45.5q61 -8 89 -44t28 -95v-110q0 -20 3.5 -43.5t16.5 -39.5h-12q-11 17 -14.5 40t-3.5 43v110q0 40 -12 66.5t-34 41.5t-52.5 21t-66.5 6h-92v-328h-10v700h135zM142 338q39 0 69.5 6t52 21.5t32.5 43
t11 71.5v63q0 68 -29.5 107.5t-102.5 39.5h-125v-352h92z" />
    <glyph glyph-name="S" unicode="S" 
d="M185 705q39 0 66.5 -14t44 -38t24 -55.5t7.5 -66.5v-12h-10v12q0 33 -6.5 62.5t-22 52t-41 36t-62.5 13.5t-62.5 -13t-41 -35.5t-22 -52t-6.5 -62.5q0 -46 20.5 -77.5t51 -56t66 -46t66 -46.5t51 -57.5t20.5 -79.5q0 -36 -7.5 -67.5t-24.5 -55t-44.5 -37.5t-67.5 -14
t-67.5 14t-44.5 37.5t-24.5 55t-7.5 67.5v33h10v-33q0 -34 7 -63.5t22.5 -52t41 -35.5t63.5 -13q37 0 63 13t41.5 35.5t22.5 52t7 63.5q0 45 -20.5 76.5t-51 55.5t-66 45.5t-66 46.5t-51 58t-20.5 81q0 76 33 124t109 49z" />
    <glyph glyph-name="T" unicode="T" horiz-adv-x="377" 
d="M182 0v690h-158v10h326v-10h-158v-690h-10z" />
    <glyph glyph-name="U" unicode="U" horiz-adv-x="363" 
d="M50 174q0 -33 6.5 -64t21.5 -54t40.5 -37t63.5 -14q37 0 62.5 14t40.5 37t21.5 54t6.5 64v526h10v-526q0 -35 -7 -67.5t-23.5 -57.5t-43.5 -39.5t-67 -14.5t-67.5 14.5t-44 39.5t-23.5 57.5t-7 67.5v526h10v-526z" />
    <glyph glyph-name="V" unicode="V" horiz-adv-x="452" 
d="M51 700l176 -689l174 689h11l-177 -700h-15l-180 700h11z" />
    <glyph glyph-name="W" unicode="W" horiz-adv-x="626" 
d="M188 0h-15l-133 700h10l131 -686l130 682h16l122 -677l127 681h10l-131 -700h-13l-123 686z" />
    <glyph glyph-name="X" unicode="X" horiz-adv-x="446" 
d="M223 353l-171 -353h-12l178 364l-166 336h11l160 -325l160 325h11l-165 -336l177 -364h-11z" />
    <glyph glyph-name="Y" unicode="Y" horiz-adv-x="426" 
d="M207 290l-167 410h10l162 -396l163 396h11l-169 -410v-290h-10v290z" />
    <glyph glyph-name="Z" unicode="Z" horiz-adv-x="398" 
d="M352 0h-312v11l306 679h-291v10h302v-12l-306 -678h301v-10z" />
    <glyph glyph-name="bracketleft" unicode="[" horiz-adv-x="222" 
d="M182 10v-10h-142v701h142v-10h-132v-681h132z" />
    <glyph glyph-name="backslash" unicode="\" horiz-adv-x="366" 
d="M50 700l276 -700h-10l-276 700h10z" />
    <glyph glyph-name="bracketright" unicode="]" horiz-adv-x="222" 
d="M172 10v681h-132v10h142v-701h-142v10h132z" />
    <glyph glyph-name="asciicircum" unicode="^" horiz-adv-x="416" 
d="M52 391h-12l162 309h12l162 -309h-12l-156 298z" />
    <glyph glyph-name="underscore" unicode="_" horiz-adv-x="520" 
d="M470 -10v-9h-430v9h430z" />
    <glyph glyph-name="grave" unicode="`" horiz-adv-x="167" 
d="M54 848l73 -86h-13l-74 86h14z" />
    <glyph glyph-name="a" unicode="a" horiz-adv-x="452" 
d="M93 170l-43 -170h-10l177 701h14l181 -701h-10l-44 170h-265zM96 180h259l-131 508z" />
    <glyph glyph-name="b" unicode="b" horiz-adv-x="362" 
d="M177 700q75 0 103 -37t28 -106v-48q0 -59 -21 -94t-83 -42q65 -8 91.5 -48t26.5 -102v-63q0 -74 -33 -117t-112 -43h-137v700h137zM147 378q39 0 67.5 5.5t47 19.5t27.5 39.5t9 66.5v48q0 33 -5.5 57.5t-19.5 41.5t-37.5 25.5t-58.5 8.5h-127v-312h97zM177 10
q74 0 104.5 40t30.5 110v63q0 80 -38.5 112.5t-115.5 32.5h-108v-358h127z" />
    <glyph glyph-name="c" unicode="c" 
d="M184 705q40 0 67.5 -14.5t44.5 -39t24.5 -56.5t7.5 -67v-53h-10v53q0 33 -7 63.5t-22.5 53.5t-41.5 36.5t-63 13.5q-38 0 -63.5 -13.5t-41 -36.5t-22.5 -53.5t-7 -63.5v-356q0 -33 7 -63.5t22.5 -53.5t41 -36.5t63.5 -13.5q37 0 63 13.5t41.5 36.5t22.5 53.5t7 63.5v74
h10v-74q0 -35 -7.5 -67t-24.5 -56.5t-44.5 -39t-67.5 -14.5t-67.5 14.5t-44.5 39t-24.5 56.5t-7.5 67v356q0 35 7.5 67t24.5 56.5t44.5 39t67.5 14.5z" />
    <glyph glyph-name="d" unicode="d" horiz-adv-x="372" 
d="M182 700q40 0 68.5 -13.5t46.5 -37t26.5 -55.5t8.5 -69v-351q0 -36 -8.5 -68t-26.5 -55.5t-46 -37t-68 -13.5h-143v700h142zM183 10q38 0 64.5 12.5t43 35t24 52t7.5 64.5v351q0 35 -7.5 65t-24.5 52.5t-43.5 35t-64.5 12.5h-132v-680h133z" />
    <glyph glyph-name="e" unicode="e" horiz-adv-x="342" 
d="M263 360v-10h-213v-340h252v-10h-262v700h262v-10h-252v-330h213z" />
    <glyph glyph-name="f" unicode="f" horiz-adv-x="332" 
d="M253 342v-10h-203v-332h-10v700h252v-10h-242v-348h203z" />
    <glyph glyph-name="g" unicode="g" 
d="M184 705q40 0 67.5 -14.5t44.5 -39t24.5 -56.5t7.5 -67v-44h-10v44q0 33 -7 63.5t-22.5 53.5t-41.5 36.5t-63 13.5q-38 0 -63.5 -13.5t-41 -36.5t-22.5 -53.5t-7 -63.5v-356q0 -33 7 -63.5t22.5 -53.5t41 -36.5t63.5 -13.5q37 0 63 13.5t41.5 36.5t22.5 53.5t7 63.5v163
h-118v10h128v-173q0 -35 -7.5 -67t-24.5 -56.5t-44.5 -39t-67.5 -14.5t-67.5 14.5t-44.5 39t-24.5 56.5t-7.5 67v356q0 35 7.5 67t24.5 56.5t44.5 39t67.5 14.5z" />
    <glyph glyph-name="h" unicode="h" horiz-adv-x="370" 
d="M50 345v-345h-10v700h10v-345h270v345h10v-700h-10v345h-270z" />
    <glyph glyph-name="i" unicode="i" horiz-adv-x="90" 
d="M50 700v-700h-10v700h10z" />
    <glyph glyph-name="j" unicode="j" horiz-adv-x="252" 
d="M40 10q11 -1 21.5 -0.5t20.5 1.5q63 6 91.5 43.5t28.5 116.5v529h10v-529q0 -85 -32.5 -125t-97.5 -45q-10 -1 -20.5 -1.5t-21.5 0.5v10z" />
    <glyph glyph-name="k" unicode="k" horiz-adv-x="399" 
d="M106 357l-56 -82v-275h-10v700h10v-407l276 407h12l-226 -334l247 -366h-12z" />
    <glyph glyph-name="l" unicode="l" horiz-adv-x="332" 
d="M40 0v700h10v-690h242v-10h-252z" />
    <glyph glyph-name="m" unicode="m" horiz-adv-x="485" 
d="M249 2h-14l-185 688v-690h-10v700h18l184 -687l186 687h17v-700h-10v690z" />
    <glyph glyph-name="n" unicode="n" horiz-adv-x="371" 
d="M50 0h-10v700h17l264 -687v687h10v-700h-15l-266 690v-690z" />
    <glyph glyph-name="o" unicode="o" horiz-adv-x="373" 
d="M40 528q0 36 8 68t25.5 56.5t45 38.5t67.5 14t68 -14t45.5 -38.5t25.5 -56.5t8 -68v-356q0 -36 -8 -68t-25.5 -56.5t-45.5 -38.5t-68 -14t-67.5 14t-45 38.5t-25.5 56.5t-8 68v356zM50 172q0 -34 7 -64.5t23 -53t42 -36t64 -13.5t64 13.5t42.5 36t23.5 53t7 64.5v356
q0 34 -7 64t-23.5 53t-42.5 36.5t-64 13.5t-64 -13.5t-42 -36.5t-23 -53t-7 -64v-356z" />
    <glyph glyph-name="p" unicode="p" horiz-adv-x="357" 
d="M175 700q40 0 67.5 -13t44 -35.5t23.5 -53t7 -66.5v-68q0 -83 -38 -122.5t-123 -39.5h-106v-302h-10v700h135zM156 312q81 0 116 36.5t35 115.5v68q0 34 -6.5 63t-21.5 50t-40.5 33t-63.5 12h-125v-378h106z" />
    <glyph glyph-name="q" unicode="q" horiz-adv-x="385" 
d="M187 705q40 0 68 -14t45.5 -38.5t25.5 -56.5t8 -68v-356q0 -40 -9.5 -74t-30.5 -59q12 -20 29 -27.5t40 -7.5h11v-10h-11q-25 0 -43.5 9t-32.5 29q-17 -17 -42 -27t-58 -10q-40 0 -68 14t-45.5 38.5t-25.5 56.5t-8 68v356q0 36 8 68t25.5 56.5t45.5 38.5t68 14zM187 695
q-38 0 -64 -13.5t-42.5 -36.5t-23.5 -53t-7 -64v-356q0 -34 7 -64.5t23.5 -53t42.5 -36t64 -13.5t64 13.5t42.5 36t23.5 53t7 64.5v356q0 34 -7 64t-23.5 53t-42.5 36.5t-64 13.5z" />
    <glyph glyph-name="r" unicode="r" horiz-adv-x="377" 
d="M175 700q77 0 109.5 -43t32.5 -114v-63q0 -66 -28 -102.5t-89 -45.5q61 -8 89 -44t28 -95v-110q0 -20 3.5 -43.5t16.5 -39.5h-12q-11 17 -14.5 40t-3.5 43v110q0 40 -12 66.5t-34 41.5t-52.5 21t-66.5 6h-92v-328h-10v700h135zM142 338q39 0 69.5 6t52 21.5t32.5 43
t11 71.5v63q0 68 -29.5 107.5t-102.5 39.5h-125v-352h92z" />
    <glyph glyph-name="s" unicode="s" 
d="M185 705q39 0 66.5 -14t44 -38t24 -55.5t7.5 -66.5v-12h-10v12q0 33 -6.5 62.5t-22 52t-41 36t-62.5 13.5t-62.5 -13t-41 -35.5t-22 -52t-6.5 -62.5q0 -46 20.5 -77.5t51 -56t66 -46t66 -46.5t51 -57.5t20.5 -79.5q0 -36 -7.5 -67.5t-24.5 -55t-44.5 -37.5t-67.5 -14
t-67.5 14t-44.5 37.5t-24.5 55t-7.5 67.5v33h10v-33q0 -34 7 -63.5t22.5 -52t41 -35.5t63.5 -13q37 0 63 13t41.5 35.5t22.5 52t7 63.5q0 45 -20.5 76.5t-51 55.5t-66 45.5t-66 46.5t-51 58t-20.5 81q0 76 33 124t109 49z" />
    <glyph glyph-name="t" unicode="t" horiz-adv-x="369" 
d="M178 0v690h-158v10h326v-10h-158v-690h-10z" />
    <glyph glyph-name="u" unicode="u" horiz-adv-x="363" 
d="M50 174q0 -33 6.5 -64t21.5 -54t40.5 -37t63.5 -14q37 0 62.5 14t40.5 37t21.5 54t6.5 64v526h10v-526q0 -35 -7 -67.5t-23.5 -57.5t-43.5 -39.5t-67 -14.5t-67.5 14.5t-44 39.5t-23.5 57.5t-7 67.5v526h10v-526z" />
    <glyph glyph-name="v" unicode="v" horiz-adv-x="452" 
d="M51 700l176 -689l174 689h11l-177 -700h-15l-180 700h11z" />
    <glyph glyph-name="w" unicode="w" horiz-adv-x="626" 
d="M188 0h-15l-133 700h10l131 -686l130 682h16l122 -677l127 681h10l-131 -700h-13l-123 686z" />
    <glyph glyph-name="x" unicode="x" horiz-adv-x="446" 
d="M223 353l-171 -353h-12l178 364l-166 336h11l160 -325l160 325h11l-165 -336l177 -364h-11z" />
    <glyph glyph-name="y" unicode="y" horiz-adv-x="426" 
d="M207 290l-167 410h10l162 -396l163 396h11l-169 -410v-290h-10v290z" />
    <glyph glyph-name="z" unicode="z" horiz-adv-x="398" 
d="M352 0h-312v11l306 679h-291v10h302v-12l-306 -678h301v-10z" />
    <glyph glyph-name="braceleft" unicode="{" horiz-adv-x="256" 
d="M190 691q-21 0 -33.5 -7.5t-19 -19.5t-9 -28.5t-3.5 -34.5l-7 -140q-1 -20 -3 -37.5t-8.5 -31.5t-19 -25t-34.5 -17q22 -6 34.5 -16.5t19 -25t8.5 -32t3 -37.5l7 -139q1 -18 3.5 -34.5t9 -28.5t19 -19.5t33.5 -7.5h26v-10h-26q-24 0 -38 8t-22 21.5t-11 32t-4 38.5
l-7 139q-1 21 -2.5 38t-8.5 30t-20 22t-37 14v14q24 5 37 14t20 22t8.5 30.5t2.5 38.5l7 139q1 20 4 38t11 32t22 22t38 8h26v-10h-26z" />
    <glyph glyph-name="bar" unicode="|" horiz-adv-x="110" 
d="M60 701v-701h-10v701h10z" />
    <glyph glyph-name="braceright" unicode="}" horiz-adv-x="256" 
d="M66 701q24 0 38 -8t22 -22t11 -32t4 -38l7 -139q1 -21 2.5 -38.5t8.5 -30.5t20 -22t37 -14v-14q-24 -5 -37 -14t-20 -22t-8.5 -30t-2.5 -38l-7 -139q-1 -20 -4 -38.5t-11 -32t-22 -21.5t-38 -8h-26v10h26q21 0 33.5 7.5t19 19.5t9 28.5t3.5 34.5l7 139q1 20 3 37.5
t8.5 32t19 25t34.5 16.5q-22 6 -34.5 17t-19 25t-8.5 31.5t-3 37.5l-7 140q-1 18 -3.5 34.5t-9 28.5t-19 19.5t-33.5 7.5h-26v10h26z" />
    <glyph glyph-name="asciitilde" unicode="~" horiz-adv-x="397" 
d="M122 385q23 1 44 -9t41 -22t39.5 -22t39.5 -9q23 2 37.5 18t24.5 35l9 -5q-11 -21 -27.5 -38.5t-42.5 -19.5q-22 -1 -42.5 9t-40 22t-40 22t-42.5 9q-26 0 -44 -15.5t-30 -36.5l-8 5q14 23 33.5 39.5t48.5 17.5z" />
    <glyph glyph-name="uni00A0" unicode="&#xa0;" horiz-adv-x="155" 
 />
    <glyph glyph-name="exclamdown" unicode="&#xa1;" horiz-adv-x="90" 
d="M50 701v-77h-10v77h10zM40 345l1 201h8l1 -201v-345h-10v345z" />
    <glyph glyph-name="cent" unicode="&#xa2;" horiz-adv-x="367" 
d="M188 655q38 -1 64.5 -14.5t43 -36t24 -53.5t7.5 -66v-22h-10v22q0 34 -7 63t-22.5 50.5t-41.5 34t-63 12.5q-38 0 -63 -13.5t-41 -36.5t-22.5 -53.5t-6.5 -63.5v-254q0 -33 6.5 -63t22.5 -53.5t41 -37t63 -13.5q37 0 63 13t41.5 35.5t22.5 52.5t7 64v40h10v-40
q0 -35 -7.5 -66.5t-24 -55t-43 -38t-64.5 -15.5v-47h-10v47q-38 1 -64.5 16t-43 39t-23.5 55.5t-7 66.5v254q0 35 7 66.5t23.5 55.5t43 39t64.5 16v45h10v-45z" />
    <glyph glyph-name="sterling" unicode="&#xa3;" horiz-adv-x="381" 
d="M195 705q40 0 67 -15.5t43.5 -41t23 -58.5t6.5 -68v-27h-10v27q0 33 -6 64t-21 55.5t-40 39t-63 14.5q-39 0 -64.5 -14t-40.5 -37.5t-21 -54t-6 -64.5q0 -44 9.5 -76.5t23 -61t28 -56.5t24.5 -64h162v-10h-159q5 -23 3.5 -48.5t-12 -55.5t-32 -65t-57.5 -78h288v-10h-301
v10q21 25 42.5 53.5t37 60t22 65t-1.5 68.5h-88v10h86q-10 36 -24.5 64t-28 56.5t-23 60.5t-9.5 77q0 36 7 68.5t23.5 57.5t43.5 39.5t68 14.5z" />
    <glyph glyph-name="currency" unicode="&#xa4;" horiz-adv-x="323" 
d="M240 421q13 -14 20.5 -32.5t7.5 -38.5q0 -21 -7.5 -39.5t-20.5 -32.5l43 -42l-7 -7l-43 42q-30 -27 -72 -27q-41 0 -71 27l-43 -42l-7 7l43 42q-13 14 -20.5 32.5t-7.5 39.5t7.5 39t20.5 32l-43 43l7 7l43 -43q30 28 71 28q42 0 72 -28l43 43l7 -7zM161 446
q-40 0 -68 -28t-28 -68t28 -68t68 -28q41 0 69 28t28 68t-28 68t-69 28z" />
    <glyph glyph-name="yen" unicode="&#xa5;" horiz-adv-x="450" 
d="M230 266v-88h119v-10h-119v-168h-10v168h-118v10h118v88h-118v10h117l-179 424h11l174 -411l175 411h10l-180 -424h119v-10h-119z" />
    <glyph glyph-name="brokenbar" unicode="&#xa6;" horiz-adv-x="111" 
d="M50 700h11v-291h-11v291zM50 291h11v-291h-11v291z" />
    <glyph glyph-name="section" unicode="&#xa7;" 
d="M188 705q27 0 51.5 -9t43.5 -24.5t30 -38.5t11 -52v-9h-10v9q0 27 -10.5 48t-27.5 35.5t-40 22.5t-48 8t-49 -6t-43 -18.5t-31 -32t-13 -47.5q-1 -35 19 -58t50.5 -40t66.5 -32t67 -34t51.5 -46t20.5 -68q0 -27 -9 -48.5t-24.5 -38.5t-36 -29.5t-42.5 -21.5
q23 -10 44 -21.5t36.5 -26.5t24.5 -35t8 -46q-1 -27 -14 -48t-33.5 -34.5t-45.5 -20.5t-49 -7q-29 0 -55 7.5t-46.5 23t-32.5 39t-12 54.5v23h10v-23q0 -29 11.5 -50.5t30.5 -35.5t43.5 -21t50.5 -7q22 0 45 6t42.5 18.5t32 31.5t13.5 44q1 37 -19 60.5t-51 40.5t-67 31
t-67 33t-51.5 45t-20.5 68q0 27 11 49t28.5 39t40.5 28.5t47 17.5q-25 11 -48.5 23t-41.5 27.5t-28.5 35.5t-9.5 47q1 30 13.5 51.5t33 35.5t46.5 20.5t53 6.5zM186 451q-24 -4 -48 -14.5t-42.5 -26.5t-30.5 -37.5t-12 -48.5q0 -32 14 -54t36 -38.5t48.5 -28.5t50.5 -22
q22 8 43 19.5t37 28t25.5 37.5t9.5 47q0 28 -11 49t-29.5 37t-42 28.5t-48.5 23.5z" />
    <glyph glyph-name="dieresis" unicode="&#xa8;" horiz-adv-x="156" 
d="M50 828v-78h-10v78h10zM116 828v-78h-10v78h10z" />
    <glyph glyph-name="copyright" unicode="&#xa9;" horiz-adv-x="754" 
d="M377 696q74 0 136 -26.5t106.5 -73t69.5 -110t25 -136.5t-25 -136.5t-69.5 -110t-106.5 -73t-136 -26.5t-136 26.5t-106.5 73t-69.5 110t-25 136.5t25 136.5t69.5 110t106.5 73t136 26.5zM377 686q-72 0 -132 -26t-103.5 -71t-67.5 -106.5t-24 -132.5t24 -132.5
t67.5 -107t103.5 -71.5t132 -26t132 26t103.5 71.5t67.5 107t24 132.5t-24 132.5t-67.5 106.5t-103.5 71t-132 26zM373 569q27 0 46 -10t31 -27t17.5 -39t5.5 -47v-17h-10v17q0 22 -4.5 42.5t-15 36.5t-28 25t-42.5 9q-26 0 -43.5 -9t-28 -25t-15 -36.5t-4.5 -42.5v-192
q0 -23 4.5 -43.5t15 -36t28 -25t43.5 -9.5q25 0 42.5 9.5t28 25t15 36t4.5 43.5v25h10v-25q0 -25 -5.5 -47.5t-17.5 -39.5t-31 -27t-46 -10q-28 0 -47 10t-31 27t-17.5 39.5t-5.5 47.5v192q0 25 5.5 47t17.5 39t31 27t47 10z" />
    <glyph glyph-name="ordfeminine" unicode="&#xaa;" horiz-adv-x="270" 
d="M146 705q25 0 41.5 -8.5t26 -23.5t13 -34.5t3.5 -41.5v-260h-10v70q-11 -32 -34 -53.5t-59 -21.5q-44 0 -65.5 26t-21.5 68v3q0 36 17.5 57.5t44.5 33.5t58.5 16t59.5 4v57q0 20 -3 37.5t-11 31t-22.5 21.5t-37.5 8t-38.5 -7.5t-25 -20.5t-13.5 -31t-4 -39v-7h-10v7
q0 47 20 77.5t71 30.5zM220 530q-26 0 -55.5 -3.5t-55 -14t-42.5 -30.5t-17 -53v-3q0 -38 18.5 -61t58.5 -23q22 0 38.5 9.5t28 25.5t18 35t8.5 39v79zM230 257v-10h-188v10h188z" />
    <glyph glyph-name="guillemotleft" unicode="&#xab;" horiz-adv-x="246" 
d="M40 351l67 238h10l-67 -238l67 -237h-10zM129 351l67 238h10l-67 -238l67 -237h-10z" />
    <glyph glyph-name="logicalnot" unicode="&#xac;" horiz-adv-x="371" 
d="M40 346v9h291v-142h-10v133h-281z" />
    <glyph glyph-name="uni00AD" unicode="&#xad;" horiz-adv-x="254" 
d="M40 355h174v-9h-174v9z" />
    <glyph glyph-name="registered" unicode="&#xae;" horiz-adv-x="754" 
d="M377 696q74 0 136 -26.5t106.5 -73t69.5 -110t25 -136.5t-25 -136.5t-69.5 -110t-106.5 -73t-136 -26.5t-136 26.5t-106.5 73t-69.5 110t-25 136.5t25 136.5t69.5 110t106.5 73t136 26.5zM377 686q-72 0 -132 -26t-103.5 -71t-67.5 -106.5t-24 -132.5t24 -132.5
t67.5 -107t103.5 -71.5t132 -26t132 26t103.5 71.5t67.5 107t24 132.5t-24 132.5t-67.5 106.5t-103.5 71t-132 26zM380 564q54 0 77 -30t23 -81v-14q0 -39 -15 -66t-55 -37q38 -9 54.5 -33.5t16.5 -62.5v-46q0 -14 2 -30.5t12 -27.5h-12q-8 13 -10 28.5t-2 29.5v46
q0 28 -8.5 46t-24 28.5t-37 14t-46.5 3.5h-60v-196h-10v428h95zM367 342q52 0 77.5 21.5t25.5 75.5v14q0 47 -19.5 74t-70.5 27h-85v-212h72z" />
    <glyph glyph-name="macron" unicode="&#xaf;" horiz-adv-x="254" 
d="M214 759v-9h-174v9h174z" />
    <glyph glyph-name="degree" unicode="&#xb0;" horiz-adv-x="200" 
d="M100 708q25 0 42.5 -16.5t17.5 -41.5q0 -26 -17.5 -42.5t-42.5 -16.5t-42.5 16.5t-17.5 42.5q0 25 17.5 41.5t42.5 16.5zM100 698q-21 0 -35.5 -13.5t-14.5 -34.5q0 -22 14.5 -35.5t35.5 -13.5q20 0 35 13.5t15 35.5q0 21 -15 34.5t-35 13.5z" />
    <glyph glyph-name="plusminus" unicode="&#xb1;" horiz-adv-x="384" 
d="M187 205v140h-147v10h147v148h10v-148h147v-10h-147v-140h147v-10h-304v10h147z" />
    <glyph glyph-name="twosuperior" unicode="&#xb2;" horiz-adv-x="266" 
d="M133 800q27 0 44.5 -9.5t28.5 -25.5t15.5 -37t4.5 -44q0 -31 -12.5 -55t-32 -46.5t-42 -44.5t-42 -47.5t-33 -56.5t-14.5 -71v-2h172v-10h-182v5q0 43 13 75.5t32.5 59t42.5 49t42.5 45t32.5 46t13 53.5q0 21 -4 40t-13.5 34t-25.5 23.5t-40 8.5t-40 -9t-25.5 -24
t-13.5 -34.5t-4 -40.5v-21h-10v21q0 23 4.5 44.5t15.5 38t29 26t44 9.5z" />
    <glyph glyph-name="threesuperior" unicode="&#xb3;" horiz-adv-x="266" 
d="M133 800q25 0 43 -9t29 -25t16 -36.5t5 -43.5v-11q0 -30 -15.5 -55.5t-44.5 -36.5q31 -10 45.5 -34t14.5 -55v-34q0 -23 -5 -43.5t-16 -36.5t-29 -25t-43 -9q-26 0 -43.5 9t-28.5 25t-16 36.5t-5 43.5v19h10v-19q0 -21 4 -40t14 -33t25.5 -22.5t39.5 -8.5t39.5 8.5
t25.5 22.5t14 33t4 40v34q0 34 -20 58.5t-56 24.5h-33v10h33q17 0 31.5 7.5t24.5 20t15 28.5t5 32v11q0 21 -4 39.5t-14 33t-25.5 23t-39.5 8.5t-39.5 -8.5t-25.5 -23t-14 -33t-4 -39.5v-12h-10v12q0 23 5 43.5t16 36.5t28.5 25t43.5 9z" />
    <glyph glyph-name="acute" unicode="&#xb4;" horiz-adv-x="167" 
d="M127 848l-74 -86h-13l73 86h14z" />
    <glyph glyph-name="uni00B5" unicode="&#xb5;" horiz-adv-x="401" 
d="M331 113q-12 -52 -44.5 -82.5t-88.5 -30.5q-57 0 -89 31t-43 79l1 -201h-10v591h10v-323q0 -34 6.5 -64.5t22 -53.5t40.5 -36.5t62 -13.5q36 0 61.5 13.5t41 36.5t22.5 53.5t7 64.5v323h10v-500h-10z" />
    <glyph glyph-name="paragraph" unicode="&#xb6;" horiz-adv-x="396" 
d="M164 690v-750h-10v362q-36 2 -60.5 13t-38.5 31.5t-20 50t-6 68.5v73q0 36 4.5 65.5t18 51t38 33.5t64.5 12h185v-760h-10v750h-165z" />
    <glyph glyph-name="periodcentered" unicode="&#xb7;" horiz-adv-x="90" 
d="M50 404v-78h-10v78h10z" />
    <glyph glyph-name="cedilla" unicode="&#xb8;" horiz-adv-x="246" 
d="M131 -39q14 0 27.5 -2.5t24 -8.5t17 -16.5t6.5 -26.5t-8 -27.5t-20 -18.5t-26.5 -10t-27.5 -3q-14 0 -29 3.5t-27 10.5t-20 18.5t-8 27.5v3h10v-3q0 -14 7 -23.5t18 -15.5t24 -9t25 -3q11 0 24 2.5t23.5 8.5t17.5 15.5t7 23.5q0 15 -6.5 24t-16.5 13.5t-22.5 6t-24.5 1.5
h-5v48h10v-39z" />
    <glyph glyph-name="onesuperior" unicode="&#xb9;" horiz-adv-x="165" 
d="M40 732q27 3 45.5 20t26.5 43h13v-444h-10v424q-11 -22 -30 -36t-44 -17z" />
    <glyph glyph-name="ordmasculine" unicode="&#xba;" horiz-adv-x="270" 
d="M135 705q26 0 44 -9t29.5 -24.5t16.5 -36.5t5 -44v-149q0 -23 -5 -44t-16.5 -36.5t-29.5 -24.5t-44 -9t-44 9t-29.5 24.5t-16.5 36.5t-5 44v149q0 23 5 44t16.5 36.5t29.5 24.5t44 9zM135 695q-47 0 -66 -31t-19 -73v-149q0 -42 19 -73t66 -31t66 31t19 73v149
q0 42 -19 73t-66 31zM230 259v-10h-188v10h188z" />
    <glyph glyph-name="guillemotright" unicode="&#xbb;" horiz-adv-x="246" 
d="M107 351l-67 238h10l67 -238l-67 -237h-10zM196 351l-67 238h10l67 -238l-67 -237h-10z" />
    <glyph glyph-name="onequarter" unicode="&#xbc;" horiz-adv-x="472" 
d="M115 680q-11 -22 -30 -36t-44 -17l-1 10q27 3 45.5 20t26.5 43h13v-444h-10v424zM96 0h-10l276 700h10zM394 0h-10v105h-162v10l159 329h13v-329h38v-10h-38v-105zM384 115v312l-150 -312h150z" />
    <glyph glyph-name="onehalf" unicode="&#xbd;" horiz-adv-x="542" 
d="M115 680q-11 -22 -30 -36t-44 -17l-1 10q27 3 45.5 20t26.5 43h13v-444h-10v424zM372 700l-276 -700h-10l276 700h10zM409 449q27 0 44.5 -9.5t28.5 -25.5t15.5 -37t4.5 -44q0 -31 -12.5 -55t-32 -46.5t-42 -44.5t-42 -47.5t-33 -56.5t-14.5 -71v-2h172v-10h-182v5
q0 43 13 75.5t32.5 59t42.5 49t42.5 45t32.5 46t13 53.5q0 21 -4 40t-13.5 34t-25.5 23.5t-40 8.5t-40 -9t-25.5 -24t-13.5 -34.5t-4 -40.5v-21h-10v21q0 23 4.5 44.5t15.5 38t29 26t44 9.5z" />
    <glyph glyph-name="threequarters" unicode="&#xbe;" horiz-adv-x="550" 
d="M133 705q25 0 43 -9t29 -25t16 -36.5t5 -43.5v-11q0 -30 -15.5 -55.5t-44.5 -36.5q31 -10 45.5 -34t14.5 -55v-34q0 -23 -5 -43.5t-16 -36.5t-29 -25t-43 -9q-26 0 -43.5 9t-28.5 25t-16 36.5t-5 43.5v19h10v-19q0 -21 4 -40t14 -33t25.5 -22.5t39.5 -8.5t39.5 8.5
t25.5 22.5t14 33t4 40v34q0 34 -20 58.5t-56 24.5h-33v10h33q17 0 31.5 7.5t24.5 20t15 28.5t5 32v11q0 21 -4 39.5t-14 33t-25.5 23t-39.5 8.5t-39.5 -8.5t-25.5 -23t-14 -33t-4 -39.5v-12h-10v12q0 23 5 43.5t16 36.5t28.5 25t43.5 9zM440 700h10l-276 -700h-10zM462 105
h-162v10l159 329h13v-329h38v-10h-38v-105h-10v105zM312 115h150v312z" />
    <glyph glyph-name="questiondown" unicode="&#xbf;" horiz-adv-x="364" 
d="M201 700v-77h-10v77h10zM200 543q5 -20 5 -36q0 -38 -11.5 -68t-29 -55.5t-37.5 -48.5t-37 -47t-28.5 -51.5t-11.5 -61.5t6 -65t21 -54.5t40.5 -37.5t64.5 -14q38 0 63.5 14.5t40.5 39t21.5 55.5t6.5 64v33h10v-33q0 -35 -7 -68t-23.5 -58.5t-44 -40.5t-67.5 -15
q-41 0 -68.5 14.5t-44 39.5t-23 57.5t-6.5 68.5q0 35 11.5 63.5t28.5 53t37.5 47.5t37.5 48t28.5 54t11.5 66q0 18 -5 36h10z" />
    <glyph glyph-name="Agrave" unicode="&#xc0;" horiz-adv-x="452" 
d="M179 823l73 -86h-13l-74 86h14zM93 170l-43 -170h-10l177 701h14l181 -701h-10l-44 170h-265zM96 180h259l-131 508z" />
    <glyph glyph-name="Aacute" unicode="&#xc1;" horiz-adv-x="452" 
d="M273 824l-74 -86h-13l73 86h14zM93 170l-43 -170h-10l177 701h14l181 -701h-10l-44 170h-265zM96 180h259l-131 508z" />
    <glyph glyph-name="Acircumflex" unicode="&#xc2;" horiz-adv-x="452" 
d="M153 737h-14l81 78h7l82 -78h-15l-70 68zM93 170l-43 -170h-10l177 701h14l181 -701h-10l-44 170h-265zM96 180h259l-131 508z" />
    <glyph glyph-name="Atilde" unicode="&#xc3;" horiz-adv-x="452" 
d="M179 800q13 0 25.5 -6t24 -13.5t23 -13.5t22.5 -5q12 1 20.5 11t13.5 20l9 -5q-7 -13 -17 -24t-26 -12q-13 -1 -24.5 5t-23 13.5t-23.5 13.5t-24 6q-14 0 -24 -9.5t-17 -21.5l-9 5q8 14 20.5 24.5t29.5 11.5zM93 170l-43 -170h-10l177 701h14l181 -701h-10l-44 170h-265z
M96 180h259l-131 508z" />
    <glyph glyph-name="Adieresis" unicode="&#xc4;" horiz-adv-x="452" 
d="M196 815v-78h-10v78h10zM262 815v-78h-10v78h10zM93 170l-43 -170h-10l177 701h14l181 -701h-10l-44 170h-265zM96 180h259l-131 508z" />
    <glyph glyph-name="Aring" unicode="&#xc5;" horiz-adv-x="452" 
d="M223 859q25 0 42.5 -16.5t17.5 -41.5q0 -26 -17.5 -42.5t-42.5 -16.5t-42.5 16.5t-17.5 42.5q0 25 17.5 41.5t42.5 16.5zM223 849q-21 0 -35.5 -13.5t-14.5 -34.5q0 -22 14.5 -35.5t35.5 -13.5q20 0 35 13.5t15 35.5q0 21 -15 34.5t-35 13.5zM93 170l-43 -170h-10
l177 701h14l181 -701h-10l-44 170h-265zM96 180h259l-131 508z" />
    <glyph glyph-name="AE" unicode="&#xc6;" horiz-adv-x="594" 
d="M521 360v-10h-180v-340h213v-10h-223v174h-210l-71 -174h-10l284 700h230v-10h-213v-330h180zM125 184h206v506z" />
    <glyph glyph-name="Ccedilla" unicode="&#xc7;" 
d="M184 705q40 0 67.5 -14.5t44.5 -39t24.5 -56.5t7.5 -67v-53h-10v53q0 33 -7 63.5t-22.5 53.5t-41.5 36.5t-63 13.5q-38 0 -63.5 -13.5t-41 -36.5t-22.5 -53.5t-7 -63.5v-356q0 -33 7 -63.5t22.5 -53.5t41 -36.5t63.5 -13.5q37 0 63 13.5t41.5 36.5t22.5 53.5t7 63.5v74
h10v-74q0 -35 -7.5 -66.5t-24 -55.5t-43 -39t-64.5 -16v-34q14 0 27.5 -2.5t24 -8.5t17 -16.5t6.5 -26.5t-8 -27.5t-20 -18.5t-26.5 -10t-27.5 -3q-14 0 -29 3.5t-27 10.5t-20 18.5t-8 27.5v3h10v-3q0 -14 7 -23.5t18 -15.5t24 -9t25 -3q11 0 24 2.5t23.5 8.5t17.5 15.5
t7 23.5q0 15 -6.5 24t-16.5 13.5t-22.5 6t-24.5 1.5h-5v43q-38 1 -64.5 16t-43 39t-24 55.5t-7.5 66.5v356q0 35 7.5 67t24.5 56.5t44.5 39t67.5 14.5z" />
    <glyph glyph-name="Egrave" unicode="&#xc8;" horiz-adv-x="342" 
d="M137 839l73 -86h-13l-74 86h14zM263 360v-10h-213v-340h252v-10h-262v700h262v-10h-252v-330h213z" />
    <glyph glyph-name="Eacute" unicode="&#xc9;" horiz-adv-x="342" 
d="M234 828l-74 -86h-13l73 86h14zM263 360v-10h-213v-340h252v-10h-262v700h262v-10h-252v-330h213z" />
    <glyph glyph-name="Ecircumflex" unicode="&#xca;" horiz-adv-x="342" 
d="M100 744h-14l81 78h7l82 -78h-15l-70 68zM263 360v-10h-213v-340h252v-10h-262v700h262v-10h-252v-330h213z" />
    <glyph glyph-name="Edieresis" unicode="&#xcb;" horiz-adv-x="342" 
d="M143 820v-78h-10v78h10zM209 820v-78h-10v78h10zM263 360v-10h-213v-340h252v-10h-262v700h262v-10h-252v-330h213z" />
    <glyph glyph-name="Igrave" unicode="&#xcc;" horiz-adv-x="90" 
d="M-24 828h14l73 -86h-13zM40 700h10v-700h-10v700z" />
    <glyph glyph-name="Iacute" unicode="&#xcd;" horiz-adv-x="90" 
d="M91 829h14l-74 -86h-13zM40 700h10v-700h-10v700z" />
    <glyph glyph-name="Icircumflex" unicode="&#xce;" horiz-adv-x="90" 
d="M48 820l82 -78h-15l-70 68l-71 -68h-14l81 78h7zM40 700h10v-700h-10v700z" />
    <glyph glyph-name="Idieresis" unicode="&#xcf;" horiz-adv-x="90" 
d="M17 821v-78h-10v78h10zM83 821v-78h-10v78h10zM50 700v-700h-10v700h10z" />
    <glyph glyph-name="Eth" unicode="&#xd0;" horiz-adv-x="372" 
d="M182 700q40 0 68.5 -13.5t46.5 -37t26.5 -55.5t8.5 -69v-351q0 -36 -8.5 -68t-26.5 -55.5t-46 -37t-68 -13.5h-143v346h-52v9h52v345h142zM151 346h-101v-336h133q38 0 64.5 12.5t43 35t24 52t7.5 64.5v351q0 35 -7.5 65t-24.5 52.5t-43.5 35t-64.5 12.5h-132v-335h101
v-9z" />
    <glyph glyph-name="Ntilde" unicode="&#xd1;" horiz-adv-x="371" 
d="M281 801q-7 -13 -17 -24t-26 -12q-13 -1 -24.5 5t-23 13.5t-23.5 13.5t-24 6q-14 0 -24 -9.5t-17 -21.5l-9 5q8 14 20.5 24.5t29.5 11.5q13 0 25.5 -6t24 -13.5t23 -13.5t22.5 -5q12 1 20.5 11t13.5 20zM50 0h-10v700h17l264 -687v687h10v-700h-15l-266 690v-690z" />
    <glyph glyph-name="Ograve" unicode="&#xd2;" horiz-adv-x="373" 
d="M140 838l73 -86h-13l-74 86h14zM186 705q40 0 68 -14t45.5 -38.5t25.5 -56.5t8 -68v-356q0 -36 -8 -68t-25.5 -56.5t-45.5 -38.5t-68 -14t-67.5 14t-45 38.5t-25.5 56.5t-8 68v356q0 36 8 68t25.5 56.5t45 38.5t67.5 14zM186 695q-38 0 -64 -13.5t-42 -36.5t-23 -53
t-7 -64v-356q0 -34 7 -64.5t23 -53t42 -36t64 -13.5t64 13.5t42.5 36t23.5 53t7 64.5v356q0 34 -7 64t-23.5 53t-42.5 36.5t-64 13.5z" />
    <glyph glyph-name="Oacute" unicode="&#xd3;" horiz-adv-x="373" 
d="M246 838l-74 -86h-13l73 86h14zM186 705q40 0 68 -14t45.5 -38.5t25.5 -56.5t8 -68v-356q0 -36 -8 -68t-25.5 -56.5t-45.5 -38.5t-68 -14t-67.5 14t-45 38.5t-25.5 56.5t-8 68v356q0 36 8 68t25.5 56.5t45 38.5t67.5 14zM186 695q-38 0 -64 -13.5t-42 -36.5t-23 -53
t-7 -64v-356q0 -34 7 -64.5t23 -53t42 -36t64 -13.5t64 13.5t42.5 36t23.5 53t7 64.5v356q0 34 -7 64t-23.5 53t-42.5 36.5t-64 13.5z" />
    <glyph glyph-name="Ocircumflex" unicode="&#xd4;" horiz-adv-x="373" 
d="M115 750h-14l81 78h7l82 -78h-15l-70 68zM186 705q40 0 68 -14t45.5 -38.5t25.5 -56.5t8 -68v-356q0 -36 -8 -68t-25.5 -56.5t-45.5 -38.5t-68 -14t-67.5 14t-45 38.5t-25.5 56.5t-8 68v356q0 36 8 68t25.5 56.5t45 38.5t67.5 14zM186 695q-38 0 -64 -13.5t-42 -36.5
t-23 -53t-7 -64v-356q0 -34 7 -64.5t23 -53t42 -36t64 -13.5t64 13.5t42.5 36t23.5 53t7 64.5v356q0 34 -7 64t-23.5 53t-42.5 36.5t-64 13.5z" />
    <glyph glyph-name="Otilde" unicode="&#xd5;" horiz-adv-x="373" 
d="M286 797q-7 -13 -17 -24t-26 -12q-13 -1 -24.5 5t-23 13.5t-23.5 13.5t-24 6q-14 0 -24 -9.5t-17 -21.5l-9 5q8 14 20.5 24.5t29.5 11.5q13 0 25.5 -6t24 -13.5t23 -13.5t22.5 -5q12 1 20.5 11t13.5 20zM186 705q40 0 68 -14t45.5 -38.5t25.5 -56.5t8 -68v-356
q0 -36 -8 -68t-25.5 -56.5t-45.5 -38.5t-68 -14t-67.5 14t-45 38.5t-25.5 56.5t-8 68v356q0 36 8 68t25.5 56.5t45 38.5t67.5 14zM186 695q-38 0 -64 -13.5t-42 -36.5t-23 -53t-7 -64v-356q0 -34 7 -64.5t23 -53t42 -36t64 -13.5t64 13.5t42.5 36t23.5 53t7 64.5v356
q0 34 -7 64t-23.5 53t-42.5 36.5t-64 13.5z" />
    <glyph glyph-name="Odieresis" unicode="&#xd6;" horiz-adv-x="373" 
d="M158 828v-78h-10v78h10zM224 828v-78h-10v78h10zM186 705q40 0 68 -14t45.5 -38.5t25.5 -56.5t8 -68v-356q0 -36 -8 -68t-25.5 -56.5t-45.5 -38.5t-68 -14t-67.5 14t-45 38.5t-25.5 56.5t-8 68v356q0 36 8 68t25.5 56.5t45 38.5t67.5 14zM186 695q-38 0 -64 -13.5
t-42 -36.5t-23 -53t-7 -64v-356q0 -34 7 -64.5t23 -53t42 -36t64 -13.5t64 13.5t42.5 36t23.5 53t7 64.5v356q0 34 -7 64t-23.5 53t-42.5 36.5t-64 13.5z" />
    <glyph glyph-name="multiply" unicode="&#xd7;" horiz-adv-x="304" 
d="M257 237l-105 105l-105 -105l-7 7l105 105l-105 105l7 7l105 -105l105 105l7 -7l-105 -105l105 -105z" />
    <glyph glyph-name="Oslash" unicode="&#xd8;" horiz-adv-x="373" 
d="M186 705q41 0 68.5 -14.5t45.5 -38.5l19 48l8 -3l-21 -55q14 -23 20.5 -52.5t6.5 -61.5v-356q0 -36 -8 -68t-25.5 -56.5t-45.5 -38.5t-68 -14q-41 0 -69 14.5t-45 39.5l-21 -52l-8 3l23 58q-14 23 -20 52.5t-6 61.5v356q0 36 8 68t25.5 56.5t45 38.5t67.5 14zM186 695
q-38 0 -64 -13.5t-42 -36.5t-23 -53t-7 -64v-356q0 -29 4.5 -54.5t15.5 -47.5l225 570q-16 26 -42.5 40.5t-66.5 14.5zM76 59q16 -25 42.5 -39.5t67.5 -14.5q38 0 64 13.5t42.5 36t23.5 53t7 64.5v356q0 29 -5.5 55t-16.5 47z" />
    <glyph glyph-name="Ugrave" unicode="&#xd9;" horiz-adv-x="363" 
d="M134 829l73 -86h-13l-74 86h14zM323 174q0 -35 -7 -67.5t-23.5 -57.5t-43.5 -39.5t-67 -14.5t-67.5 14.5t-44 39.5t-23.5 57.5t-7 67.5v526h10v-526q0 -33 6.5 -64t21.5 -54t40.5 -37t63.5 -14q37 0 62.5 14t40.5 37t21.5 54t6.5 64v526h10v-526z" />
    <glyph glyph-name="Uacute" unicode="&#xda;" horiz-adv-x="363" 
d="M251 838l-74 -86h-13l73 86h14zM323 174q0 -35 -7 -67.5t-23.5 -57.5t-43.5 -39.5t-67 -14.5t-67.5 14.5t-44 39.5t-23.5 57.5t-7 67.5v526h10v-526q0 -33 6.5 -64t21.5 -54t40.5 -37t63.5 -14q37 0 62.5 14t40.5 37t21.5 54t6.5 64v526h10v-526z" />
    <glyph glyph-name="Ucircumflex" unicode="&#xdb;" horiz-adv-x="363" 
d="M112 750h-14l81 78h7l82 -78h-15l-70 68zM323 174q0 -35 -7 -67.5t-23.5 -57.5t-43.5 -39.5t-67 -14.5t-67.5 14.5t-44 39.5t-23.5 57.5t-7 67.5v526h10v-526q0 -33 6.5 -64t21.5 -54t40.5 -37t63.5 -14q37 0 62.5 14t40.5 37t21.5 54t6.5 64v526h10v-526z" />
    <glyph glyph-name="Udieresis" unicode="&#xdc;" horiz-adv-x="363" 
d="M153 825v-78h-10v78h10zM219 825v-78h-10v78h10zM323 174q0 -35 -7 -67.5t-23.5 -57.5t-43.5 -39.5t-67 -14.5t-67.5 14.5t-44 39.5t-23.5 57.5t-7 67.5v526h10v-526q0 -33 6.5 -64t21.5 -54t40.5 -37t63.5 -14q37 0 62.5 14t40.5 37t21.5 54t6.5 64v526h10v-526z" />
    <glyph glyph-name="Yacute" unicode="&#xdd;" horiz-adv-x="426" 
d="M280 828l-74 -86h-13l73 86h14zM207 290l-167 410h10l162 -396l163 396h11l-169 -410v-290h-10v290z" />
    <glyph glyph-name="Thorn" unicode="&#xde;" horiz-adv-x="377" 
d="M175 554q40 0 67.5 -13t44 -35.5t23.5 -53t7 -66.5v-68q0 -83 -38 -122.5t-123 -39.5h-106v-156h-10v700h10v-146h125zM156 166q81 0 116 36.5t35 115.5v68q0 34 -6.5 63t-21.5 50t-40.5 33t-63.5 12h-125v-378h106z" />
    <glyph glyph-name="germandbls" unicode="&#xdf;" horiz-adv-x="691" 
d="M180 705q39 0 66.5 -14t44 -38t24 -55.5t7.5 -66.5v-12h-10v12q0 33 -6.5 62.5t-22 52t-41 36t-62.5 13.5t-62.5 -13t-41 -35.5t-22 -52t-6.5 -62.5q0 -46 20.5 -77.5t51 -56t66 -46t66 -46.5t51 -57.5t20.5 -79.5q0 -36 -7.5 -67.5t-24.5 -55t-44.5 -37.5t-67.5 -14
t-67.5 14t-44.5 37.5t-24.5 55t-7.5 67.5v33h10v-33q0 -34 7 -63.5t22.5 -52t41 -35.5t63.5 -13q37 0 63 13t41.5 35.5t22.5 52t7 63.5q0 45 -20.5 76.5t-51 55.5t-66 45.5t-66 46.5t-51 58t-20.5 81q0 76 33 124t109 49zM512 705q39 0 66.5 -14t44 -38t24 -55.5t7.5 -66.5
v-12h-10v12q0 33 -6.5 62.5t-22 52t-41 36t-62.5 13.5t-62.5 -13t-41 -35.5t-22 -52t-6.5 -62.5q0 -46 20.5 -77.5t51 -56t66 -46t66 -46.5t51 -57.5t20.5 -79.5q0 -36 -7.5 -67.5t-24.5 -55t-44.5 -37.5t-67.5 -14t-67.5 14t-44.5 37.5t-24.5 55t-7.5 67.5v33h10v-33
q0 -34 7 -63.5t22.5 -52t41 -35.5t63.5 -13q37 0 63 13t41.5 35.5t22.5 52t7 63.5q0 45 -20.5 76.5t-51 55.5t-66 45.5t-66 46.5t-51 58t-20.5 81q0 76 33 124t109 49z" />
    <glyph glyph-name="agrave" unicode="&#xe0;" horiz-adv-x="452" 
d="M179 823l73 -86h-13l-74 86h14zM93 170l-43 -170h-10l177 701h14l181 -701h-10l-44 170h-265zM96 180h259l-131 508z" />
    <glyph glyph-name="aacute" unicode="&#xe1;" horiz-adv-x="452" 
d="M273 824l-74 -86h-13l73 86h14zM93 170l-43 -170h-10l177 701h14l181 -701h-10l-44 170h-265zM96 180h259l-131 508z" />
    <glyph glyph-name="acircumflex" unicode="&#xe2;" horiz-adv-x="452" 
d="M153 737h-14l81 78h7l82 -78h-15l-70 68zM93 170l-43 -170h-10l177 701h14l181 -701h-10l-44 170h-265zM96 180h259l-131 508z" />
    <glyph glyph-name="atilde" unicode="&#xe3;" horiz-adv-x="452" 
d="M179 800q13 0 25.5 -6t24 -13.5t23 -13.5t22.5 -5q12 1 20.5 11t13.5 20l9 -5q-7 -13 -17 -24t-26 -12q-13 -1 -24.5 5t-23 13.5t-23.5 13.5t-24 6q-14 0 -24 -9.5t-17 -21.5l-9 5q8 14 20.5 24.5t29.5 11.5zM93 170l-43 -170h-10l177 701h14l181 -701h-10l-44 170h-265z
M96 180h259l-131 508z" />
    <glyph glyph-name="adieresis" unicode="&#xe4;" horiz-adv-x="452" 
d="M196 815v-78h-10v78h10zM262 815v-78h-10v78h10zM93 170l-43 -170h-10l177 701h14l181 -701h-10l-44 170h-265zM96 180h259l-131 508z" />
    <glyph glyph-name="aring" unicode="&#xe5;" horiz-adv-x="452" 
d="M223 859q25 0 42.5 -16.5t17.5 -41.5q0 -26 -17.5 -42.5t-42.5 -16.5t-42.5 16.5t-17.5 42.5q0 25 17.5 41.5t42.5 16.5zM223 849q-21 0 -35.5 -13.5t-14.5 -34.5q0 -22 14.5 -35.5t35.5 -13.5q20 0 35 13.5t15 35.5q0 21 -15 34.5t-35 13.5zM93 170l-43 -170h-10
l177 701h14l181 -701h-10l-44 170h-265zM96 180h259l-131 508z" />
    <glyph glyph-name="ae" unicode="&#xe6;" horiz-adv-x="594" 
d="M521 360v-10h-180v-340h213v-10h-223v174h-210l-71 -174h-10l284 700h230v-10h-213v-330h180zM125 184h206v506z" />
    <glyph glyph-name="ccedilla" unicode="&#xe7;" 
d="M184 705q40 0 67.5 -14.5t44.5 -39t24.5 -56.5t7.5 -67v-53h-10v53q0 33 -7 63.5t-22.5 53.5t-41.5 36.5t-63 13.5q-38 0 -63.5 -13.5t-41 -36.5t-22.5 -53.5t-7 -63.5v-356q0 -33 7 -63.5t22.5 -53.5t41 -36.5t63.5 -13.5q37 0 63 13.5t41.5 36.5t22.5 53.5t7 63.5v74
h10v-74q0 -35 -7.5 -66.5t-24 -55.5t-43 -39t-64.5 -16v-34q14 0 27.5 -2.5t24 -8.5t17 -16.5t6.5 -26.5t-8 -27.5t-20 -18.5t-26.5 -10t-27.5 -3q-14 0 -29 3.5t-27 10.5t-20 18.5t-8 27.5v3h10v-3q0 -14 7 -23.5t18 -15.5t24 -9t25 -3q11 0 24 2.5t23.5 8.5t17.5 15.5
t7 23.5q0 15 -6.5 24t-16.5 13.5t-22.5 6t-24.5 1.5h-5v43q-38 1 -64.5 16t-43 39t-24 55.5t-7.5 66.5v356q0 35 7.5 67t24.5 56.5t44.5 39t67.5 14.5z" />
    <glyph glyph-name="egrave" unicode="&#xe8;" horiz-adv-x="342" 
d="M137 839l73 -86h-13l-74 86h14zM263 360v-10h-213v-340h252v-10h-262v700h262v-10h-252v-330h213z" />
    <glyph glyph-name="eacute" unicode="&#xe9;" horiz-adv-x="342" 
d="M234 828l-74 -86h-13l73 86h14zM263 360v-10h-213v-340h252v-10h-262v700h262v-10h-252v-330h213z" />
    <glyph glyph-name="ecircumflex" unicode="&#xea;" horiz-adv-x="342" 
d="M100 744h-14l81 78h7l82 -78h-15l-70 68zM263 360v-10h-213v-340h252v-10h-262v700h262v-10h-252v-330h213z" />
    <glyph glyph-name="edieresis" unicode="&#xeb;" horiz-adv-x="342" 
d="M143 820v-78h-10v78h10zM209 820v-78h-10v78h10zM263 360v-10h-213v-340h252v-10h-262v700h262v-10h-252v-330h213z" />
    <glyph glyph-name="igrave" unicode="&#xec;" horiz-adv-x="90" 
d="M-24 828h14l73 -86h-13zM40 700h10v-700h-10v700z" />
    <glyph glyph-name="iacute" unicode="&#xed;" horiz-adv-x="90" 
d="M91 829h14l-74 -86h-13zM40 700h10v-700h-10v700z" />
    <glyph glyph-name="icircumflex" unicode="&#xee;" horiz-adv-x="90" 
d="M48 820l82 -78h-15l-70 68l-71 -68h-14l81 78h7zM40 700h10v-700h-10v700z" />
    <glyph glyph-name="idieresis" unicode="&#xef;" horiz-adv-x="90" 
d="M17 821v-78h-10v78h10zM83 821v-78h-10v78h10zM50 700v-700h-10v700h10z" />
    <glyph glyph-name="eth" unicode="&#xf0;" horiz-adv-x="372" 
d="M182 700q40 0 68.5 -13.5t46.5 -37t26.5 -55.5t8.5 -69v-351q0 -36 -8.5 -68t-26.5 -55.5t-46 -37t-68 -13.5h-143v344h-46v9h46v347h142zM152 344h-102v-334h133q38 0 64.5 12.5t43 35t24 52t7.5 64.5v351q0 35 -7.5 65t-24.5 52.5t-43.5 35t-64.5 12.5h-132v-337h102
v-9z" />
    <glyph glyph-name="ntilde" unicode="&#xf1;" horiz-adv-x="371" 
d="M281 801q-7 -13 -17 -24t-26 -12q-13 -1 -24.5 5t-23 13.5t-23.5 13.5t-24 6q-14 0 -24 -9.5t-17 -21.5l-9 5q8 14 20.5 24.5t29.5 11.5q13 0 25.5 -6t24 -13.5t23 -13.5t22.5 -5q12 1 20.5 11t13.5 20zM50 0h-10v700h17l264 -687v687h10v-700h-15l-266 690v-690z" />
    <glyph glyph-name="ograve" unicode="&#xf2;" horiz-adv-x="373" 
d="M140 838l73 -86h-13l-74 86h14zM186 705q40 0 68 -14t45.5 -38.5t25.5 -56.5t8 -68v-356q0 -36 -8 -68t-25.5 -56.5t-45.5 -38.5t-68 -14t-67.5 14t-45 38.5t-25.5 56.5t-8 68v356q0 36 8 68t25.5 56.5t45 38.5t67.5 14zM186 695q-38 0 -64 -13.5t-42 -36.5t-23 -53
t-7 -64v-356q0 -34 7 -64.5t23 -53t42 -36t64 -13.5t64 13.5t42.5 36t23.5 53t7 64.5v356q0 34 -7 64t-23.5 53t-42.5 36.5t-64 13.5z" />
    <glyph glyph-name="oacute" unicode="&#xf3;" horiz-adv-x="373" 
d="M246 838l-74 -86h-13l73 86h14zM186 705q40 0 68 -14t45.5 -38.5t25.5 -56.5t8 -68v-356q0 -36 -8 -68t-25.5 -56.5t-45.5 -38.5t-68 -14t-67.5 14t-45 38.5t-25.5 56.5t-8 68v356q0 36 8 68t25.5 56.5t45 38.5t67.5 14zM186 695q-38 0 -64 -13.5t-42 -36.5t-23 -53
t-7 -64v-356q0 -34 7 -64.5t23 -53t42 -36t64 -13.5t64 13.5t42.5 36t23.5 53t7 64.5v356q0 34 -7 64t-23.5 53t-42.5 36.5t-64 13.5z" />
    <glyph glyph-name="ocircumflex" unicode="&#xf4;" horiz-adv-x="373" 
d="M115 750h-14l81 78h7l82 -78h-15l-70 68zM186 705q40 0 68 -14t45.5 -38.5t25.5 -56.5t8 -68v-356q0 -36 -8 -68t-25.5 -56.5t-45.5 -38.5t-68 -14t-67.5 14t-45 38.5t-25.5 56.5t-8 68v356q0 36 8 68t25.5 56.5t45 38.5t67.5 14zM186 695q-38 0 -64 -13.5t-42 -36.5
t-23 -53t-7 -64v-356q0 -34 7 -64.5t23 -53t42 -36t64 -13.5t64 13.5t42.5 36t23.5 53t7 64.5v356q0 34 -7 64t-23.5 53t-42.5 36.5t-64 13.5z" />
    <glyph glyph-name="otilde" unicode="&#xf5;" horiz-adv-x="373" 
d="M286 797q-7 -13 -17 -24t-26 -12q-13 -1 -24.5 5t-23 13.5t-23.5 13.5t-24 6q-14 0 -24 -9.5t-17 -21.5l-9 5q8 14 20.5 24.5t29.5 11.5q13 0 25.5 -6t24 -13.5t23 -13.5t22.5 -5q12 1 20.5 11t13.5 20zM186 705q40 0 68 -14t45.5 -38.5t25.5 -56.5t8 -68v-356
q0 -36 -8 -68t-25.5 -56.5t-45.5 -38.5t-68 -14t-67.5 14t-45 38.5t-25.5 56.5t-8 68v356q0 36 8 68t25.5 56.5t45 38.5t67.5 14zM186 695q-38 0 -64 -13.5t-42 -36.5t-23 -53t-7 -64v-356q0 -34 7 -64.5t23 -53t42 -36t64 -13.5t64 13.5t42.5 36t23.5 53t7 64.5v356
q0 34 -7 64t-23.5 53t-42.5 36.5t-64 13.5z" />
    <glyph glyph-name="odieresis" unicode="&#xf6;" horiz-adv-x="373" 
d="M158 828v-78h-10v78h10zM224 828v-78h-10v78h10zM186 705q40 0 68 -14t45.5 -38.5t25.5 -56.5t8 -68v-356q0 -36 -8 -68t-25.5 -56.5t-45.5 -38.5t-68 -14t-67.5 14t-45 38.5t-25.5 56.5t-8 68v356q0 36 8 68t25.5 56.5t45 38.5t67.5 14zM186 695q-38 0 -64 -13.5
t-42 -36.5t-23 -53t-7 -64v-356q0 -34 7 -64.5t23 -53t42 -36t64 -13.5t64 13.5t42.5 36t23.5 53t7 64.5v356q0 34 -7 64t-23.5 53t-42.5 36.5t-64 13.5z" />
    <glyph glyph-name="divide" unicode="&#xf7;" horiz-adv-x="254" 
d="M131 468v-78h-10v78h10zM214 355v-9h-174v9h174zM131 311v-78h-10v78h10z" />
    <glyph glyph-name="oslash" unicode="&#xf8;" horiz-adv-x="373" 
d="M186 705q41 0 68.5 -14.5t45.5 -38.5l19 48l8 -3l-21 -55q14 -23 20.5 -52.5t6.5 -61.5v-356q0 -36 -8 -68t-25.5 -56.5t-45.5 -38.5t-68 -14q-41 0 -69 14.5t-45 39.5l-21 -52l-8 3l23 58q-14 23 -20 52.5t-6 61.5v356q0 36 8 68t25.5 56.5t45 38.5t67.5 14zM186 695
q-38 0 -64 -13.5t-42 -36.5t-23 -53t-7 -64v-356q0 -29 4.5 -54.5t15.5 -47.5l225 570q-16 26 -42.5 40.5t-66.5 14.5zM76 59q16 -25 42.5 -39.5t67.5 -14.5q38 0 64 13.5t42.5 36t23.5 53t7 64.5v356q0 29 -5.5 55t-16.5 47z" />
    <glyph glyph-name="ugrave" unicode="&#xf9;" horiz-adv-x="363" 
d="M134 829l73 -86h-13l-74 86h14zM323 174q0 -35 -7 -67.5t-23.5 -57.5t-43.5 -39.5t-67 -14.5t-67.5 14.5t-44 39.5t-23.5 57.5t-7 67.5v526h10v-526q0 -33 6.5 -64t21.5 -54t40.5 -37t63.5 -14q37 0 62.5 14t40.5 37t21.5 54t6.5 64v526h10v-526z" />
    <glyph glyph-name="uacute" unicode="&#xfa;" horiz-adv-x="363" 
d="M251 838l-74 -86h-13l73 86h14zM323 174q0 -35 -7 -67.5t-23.5 -57.5t-43.5 -39.5t-67 -14.5t-67.5 14.5t-44 39.5t-23.5 57.5t-7 67.5v526h10v-526q0 -33 6.5 -64t21.5 -54t40.5 -37t63.5 -14q37 0 62.5 14t40.5 37t21.5 54t6.5 64v526h10v-526z" />
    <glyph glyph-name="ucircumflex" unicode="&#xfb;" horiz-adv-x="363" 
d="M112 750h-14l81 78h7l82 -78h-15l-70 68zM323 174q0 -35 -7 -67.5t-23.5 -57.5t-43.5 -39.5t-67 -14.5t-67.5 14.5t-44 39.5t-23.5 57.5t-7 67.5v526h10v-526q0 -33 6.5 -64t21.5 -54t40.5 -37t63.5 -14q37 0 62.5 14t40.5 37t21.5 54t6.5 64v526h10v-526z" />
    <glyph glyph-name="udieresis" unicode="&#xfc;" horiz-adv-x="363" 
d="M153 825v-78h-10v78h10zM219 825v-78h-10v78h10zM323 174q0 -35 -7 -67.5t-23.5 -57.5t-43.5 -39.5t-67 -14.5t-67.5 14.5t-44 39.5t-23.5 57.5t-7 67.5v526h10v-526q0 -33 6.5 -64t21.5 -54t40.5 -37t63.5 -14q37 0 62.5 14t40.5 37t21.5 54t6.5 64v526h10v-526z" />
    <glyph glyph-name="yacute" unicode="&#xfd;" horiz-adv-x="426" 
d="M280 828l-74 -86h-13l73 86h14zM207 290l-167 410h10l162 -396l163 396h11l-169 -410v-290h-10v290z" />
    <glyph glyph-name="thorn" unicode="&#xfe;" horiz-adv-x="377" 
d="M175 554q40 0 67.5 -13t44 -35.5t23.5 -53t7 -66.5v-68q0 -83 -38 -122.5t-123 -39.5h-106v-156h-10v700h10v-146h125zM156 166q81 0 116 36.5t35 115.5v68q0 34 -6.5 63t-21.5 50t-40.5 33t-63.5 12h-125v-378h106z" />
    <glyph glyph-name="ydieresis" unicode="&#xff;" horiz-adv-x="426" 
d="M184 821v-78h-10v78h10zM250 821v-78h-10v78h10zM207 290l-167 410h10l162 -396l163 396h11l-169 -410v-290h-10v290z" />
    <glyph glyph-name="Amacron" unicode="&#x100;" horiz-adv-x="452" 
d="M311 779v-9h-174v9h174zM93 170l-43 -170h-10l177 701h14l181 -701h-10l-44 170h-265zM96 180h259l-131 508z" />
    <glyph glyph-name="amacron" unicode="&#x101;" horiz-adv-x="452" 
d="M311 779v-9h-174v9h174zM93 170l-43 -170h-10l177 701h14l181 -701h-10l-44 170h-265zM96 180h259l-131 508z" />
    <glyph glyph-name="Abreve" unicode="&#x102;" horiz-adv-x="452" 
d="M313 806q-2 -35 -28.5 -54t-60.5 -19q-33 0 -60 18.5t-28 54.5h10q1 -32 25 -47.5t53 -15.5t53 15.5t26 47.5h10zM93 170l-43 -170h-10l177 701h14l181 -701h-10l-44 170h-265zM96 180h259l-131 508z" />
    <glyph glyph-name="abreve" unicode="&#x103;" horiz-adv-x="452" 
d="M313 806q-2 -35 -28.5 -54t-60.5 -19q-33 0 -60 18.5t-28 54.5h10q1 -32 25 -47.5t53 -15.5t53 15.5t26 47.5h10zM93 170l-43 -170h-10l177 701h14l181 -701h-10l-44 170h-265zM96 180h259l-131 508z" />
    <glyph glyph-name="Aogonek" unicode="&#x104;" horiz-adv-x="452" 
d="M411 0q-9 -7 -18 -18t-16 -23.5t-11.5 -25.5t-3.5 -25q2 -18 13.5 -26t28.5 -8q13 0 26 4t22 12v-12q-22 -14 -49 -14q-20 1 -34.5 11t-16.5 33q-2 24 13 50t36 45l-43 167h-265l-43 -170h-10l177 701h14l181 -701h-1zM96 180h259l-131 508z" />
    <glyph glyph-name="aogonek" unicode="&#x105;" horiz-adv-x="452" 
d="M411 0q-9 -7 -18 -18t-16 -23.5t-11.5 -25.5t-3.5 -25q2 -18 13.5 -26t28.5 -8q13 0 26 4t22 12v-12q-22 -14 -49 -14q-20 1 -34.5 11t-16.5 33q-2 24 13 50t36 45l-43 167h-265l-43 -170h-10l177 701h14l181 -701h-1zM96 180h259l-131 508z" />
    <glyph glyph-name="Cacute" unicode="&#x106;" 
d="M250 838l-74 -86h-13l73 86h14zM184 705q40 0 67.5 -14.5t44.5 -39t24.5 -56.5t7.5 -67v-53h-10v53q0 33 -7 63.5t-22.5 53.5t-41.5 36.5t-63 13.5q-38 0 -63.5 -13.5t-41 -36.5t-22.5 -53.5t-7 -63.5v-356q0 -33 7 -63.5t22.5 -53.5t41 -36.5t63.5 -13.5q37 0 63 13.5
t41.5 36.5t22.5 53.5t7 63.5v74h10v-74q0 -35 -7.5 -67t-24.5 -56.5t-44.5 -39t-67.5 -14.5t-67.5 14.5t-44.5 39t-24.5 56.5t-7.5 67v356q0 35 7.5 67t24.5 56.5t44.5 39t67.5 14.5z" />
    <glyph glyph-name="cacute" unicode="&#x107;" 
d="M250 838l-74 -86h-13l73 86h14zM184 705q40 0 67.5 -14.5t44.5 -39t24.5 -56.5t7.5 -67v-53h-10v53q0 33 -7 63.5t-22.5 53.5t-41.5 36.5t-63 13.5q-38 0 -63.5 -13.5t-41 -36.5t-22.5 -53.5t-7 -63.5v-356q0 -33 7 -63.5t22.5 -53.5t41 -36.5t63.5 -13.5q37 0 63 13.5
t41.5 36.5t22.5 53.5t7 63.5v74h10v-74q0 -35 -7.5 -67t-24.5 -56.5t-44.5 -39t-67.5 -14.5t-67.5 14.5t-44.5 39t-24.5 56.5t-7.5 67v356q0 35 7.5 67t24.5 56.5t44.5 39t67.5 14.5z" />
    <glyph glyph-name="Ccircumflex" unicode="&#x108;" 
d="M119 747h-14l81 78h7l82 -78h-15l-70 68zM184 705q40 0 67.5 -14.5t44.5 -39t24.5 -56.5t7.5 -67v-53h-10v53q0 33 -7 63.5t-22.5 53.5t-41.5 36.5t-63 13.5q-38 0 -63.5 -13.5t-41 -36.5t-22.5 -53.5t-7 -63.5v-356q0 -33 7 -63.5t22.5 -53.5t41 -36.5t63.5 -13.5
q37 0 63 13.5t41.5 36.5t22.5 53.5t7 63.5v74h10v-74q0 -35 -7.5 -67t-24.5 -56.5t-44.5 -39t-67.5 -14.5t-67.5 14.5t-44.5 39t-24.5 56.5t-7.5 67v356q0 35 7.5 67t24.5 56.5t44.5 39t67.5 14.5z" />
    <glyph glyph-name="ccircumflex" unicode="&#x109;" 
d="M119 747h-14l81 78h7l82 -78h-15l-70 68zM184 705q40 0 67.5 -14.5t44.5 -39t24.5 -56.5t7.5 -67v-53h-10v53q0 33 -7 63.5t-22.5 53.5t-41.5 36.5t-63 13.5q-38 0 -63.5 -13.5t-41 -36.5t-22.5 -53.5t-7 -63.5v-356q0 -33 7 -63.5t22.5 -53.5t41 -36.5t63.5 -13.5
q37 0 63 13.5t41.5 36.5t22.5 53.5t7 63.5v74h10v-74q0 -35 -7.5 -67t-24.5 -56.5t-44.5 -39t-67.5 -14.5t-67.5 14.5t-44.5 39t-24.5 56.5t-7.5 67v356q0 35 7.5 67t24.5 56.5t44.5 39t67.5 14.5z" />
    <glyph glyph-name="Cdotaccent" unicode="&#x10a;" 
d="M189 819v-78h-10v78h10zM184 705q40 0 67.5 -14.5t44.5 -39t24.5 -56.5t7.5 -67v-53h-10v53q0 33 -7 63.5t-22.5 53.5t-41.5 36.5t-63 13.5q-38 0 -63.5 -13.5t-41 -36.5t-22.5 -53.5t-7 -63.5v-356q0 -33 7 -63.5t22.5 -53.5t41 -36.5t63.5 -13.5q37 0 63 13.5
t41.5 36.5t22.5 53.5t7 63.5v74h10v-74q0 -35 -7.5 -67t-24.5 -56.5t-44.5 -39t-67.5 -14.5t-67.5 14.5t-44.5 39t-24.5 56.5t-7.5 67v356q0 35 7.5 67t24.5 56.5t44.5 39t67.5 14.5z" />
    <glyph glyph-name="cdotaccent" unicode="&#x10b;" 
d="M189 819v-78h-10v78h10zM184 705q40 0 67.5 -14.5t44.5 -39t24.5 -56.5t7.5 -67v-53h-10v53q0 33 -7 63.5t-22.5 53.5t-41.5 36.5t-63 13.5q-38 0 -63.5 -13.5t-41 -36.5t-22.5 -53.5t-7 -63.5v-356q0 -33 7 -63.5t22.5 -53.5t41 -36.5t63.5 -13.5q37 0 63 13.5
t41.5 36.5t22.5 53.5t7 63.5v74h10v-74q0 -35 -7.5 -67t-24.5 -56.5t-44.5 -39t-67.5 -14.5t-67.5 14.5t-44.5 39t-24.5 56.5t-7.5 67v356q0 35 7.5 67t24.5 56.5t44.5 39t67.5 14.5z" />
    <glyph glyph-name="Ccaron" unicode="&#x10c;" 
d="M121 826l71 -68l70 68h15l-82 -78h-7l-81 78h14zM184 705q40 0 67.5 -14.5t44.5 -39t24.5 -56.5t7.5 -67v-53h-10v53q0 33 -7 63.5t-22.5 53.5t-41.5 36.5t-63 13.5q-38 0 -63.5 -13.5t-41 -36.5t-22.5 -53.5t-7 -63.5v-356q0 -33 7 -63.5t22.5 -53.5t41 -36.5
t63.5 -13.5q37 0 63 13.5t41.5 36.5t22.5 53.5t7 63.5v74h10v-74q0 -35 -7.5 -67t-24.5 -56.5t-44.5 -39t-67.5 -14.5t-67.5 14.5t-44.5 39t-24.5 56.5t-7.5 67v356q0 35 7.5 67t24.5 56.5t44.5 39t67.5 14.5z" />
    <glyph glyph-name="ccaron" unicode="&#x10d;" 
d="M121 826l71 -68l70 68h15l-82 -78h-7l-81 78h14zM184 705q40 0 67.5 -14.5t44.5 -39t24.5 -56.5t7.5 -67v-53h-10v53q0 33 -7 63.5t-22.5 53.5t-41.5 36.5t-63 13.5q-38 0 -63.5 -13.5t-41 -36.5t-22.5 -53.5t-7 -63.5v-356q0 -33 7 -63.5t22.5 -53.5t41 -36.5
t63.5 -13.5q37 0 63 13.5t41.5 36.5t22.5 53.5t7 63.5v74h10v-74q0 -35 -7.5 -67t-24.5 -56.5t-44.5 -39t-67.5 -14.5t-67.5 14.5t-44.5 39t-24.5 56.5t-7.5 67v356q0 35 7.5 67t24.5 56.5t44.5 39t67.5 14.5z" />
    <glyph glyph-name="Dcaron" unicode="&#x10e;" horiz-adv-x="372" 
d="M105 820l71 -68l70 68h15l-82 -78h-7l-81 78h14zM182 700q40 0 68.5 -13.5t46.5 -37t26.5 -55.5t8.5 -69v-351q0 -36 -8.5 -68t-26.5 -55.5t-46 -37t-68 -13.5h-143v700h142zM183 10q38 0 64.5 12.5t43 35t24 52t7.5 64.5v351q0 35 -7.5 65t-24.5 52.5t-43.5 35
t-64.5 12.5h-132v-680h133z" />
    <glyph glyph-name="dcaron" unicode="&#x10f;" horiz-adv-x="372" 
d="M105 820l71 -68l70 68h15l-82 -78h-7l-81 78h14zM182 700q40 0 68.5 -13.5t46.5 -37t26.5 -55.5t8.5 -69v-351q0 -36 -8.5 -68t-26.5 -55.5t-46 -37t-68 -13.5h-143v700h142zM183 10q38 0 64.5 12.5t43 35t24 52t7.5 64.5v351q0 35 -7.5 65t-24.5 52.5t-43.5 35
t-64.5 12.5h-132v-680h133z" />
    <glyph glyph-name="Dcroat" unicode="&#x110;" horiz-adv-x="372" 
d="M182 700q40 0 68.5 -13.5t46.5 -37t26.5 -55.5t8.5 -69v-351q0 -36 -8.5 -68t-26.5 -55.5t-46 -37t-68 -13.5h-143v344h-46v9h46v347h142zM152 344h-102v-334h133q38 0 64.5 12.5t43 35t24 52t7.5 64.5v351q0 35 -7.5 65t-24.5 52.5t-43.5 35t-64.5 12.5h-132v-337h102
v-9z" />
    <glyph glyph-name="dcroat" unicode="&#x111;" horiz-adv-x="372" 
d="M182 700q40 0 68.5 -13.5t46.5 -37t26.5 -55.5t8.5 -69v-351q0 -36 -8.5 -68t-26.5 -55.5t-46 -37t-68 -13.5h-143v344h-46v9h46v347h142zM152 344h-102v-334h133q38 0 64.5 12.5t43 35t24 52t7.5 64.5v351q0 35 -7.5 65t-24.5 52.5t-43.5 35t-64.5 12.5h-132v-337h102
v-9z" />
    <glyph glyph-name="Emacron" unicode="&#x112;" horiz-adv-x="342" 
d="M250 783v-9h-164v9h164zM263 360v-10h-213v-340h252v-10h-262v700h262v-10h-252v-330h213z" />
    <glyph glyph-name="emacron" unicode="&#x113;" horiz-adv-x="342" 
d="M250 783v-9h-164v9h164zM263 360v-10h-213v-340h252v-10h-262v700h262v-10h-252v-330h213z" />
    <glyph glyph-name="Ebreve" unicode="&#x114;" horiz-adv-x="342" 
d="M259 823q-2 -35 -28.5 -54t-60.5 -19q-33 0 -60 18.5t-28 54.5h10q1 -32 25 -47.5t53 -15.5t53 15.5t26 47.5h10zM263 360v-10h-213v-340h252v-10h-262v700h262v-10h-252v-330h213z" />
    <glyph glyph-name="ebreve" unicode="&#x115;" horiz-adv-x="342" 
d="M259 823q-2 -35 -28.5 -54t-60.5 -19q-33 0 -60 18.5t-28 54.5h10q1 -32 25 -47.5t53 -15.5t53 15.5t26 47.5h10zM263 360v-10h-213v-340h252v-10h-262v700h262v-10h-252v-330h213z" />
    <glyph glyph-name="Edotaccent" unicode="&#x116;" horiz-adv-x="342" 
d="M180 823v-78h-10v78h10zM263 360v-10h-213v-340h252v-10h-262v700h262v-10h-252v-330h213z" />
    <glyph glyph-name="edotaccent" unicode="&#x117;" horiz-adv-x="342" 
d="M180 823v-78h-10v78h10zM263 360v-10h-213v-340h252v-10h-262v700h262v-10h-252v-330h213z" />
    <glyph glyph-name="Eogonek" unicode="&#x118;" horiz-adv-x="342" 
d="M263 360v-10h-213v-340h252v-10h-16q-9 -7 -18 -18t-16.5 -23.5t-12 -25.5t-3.5 -25q2 -18 13.5 -26t28.5 -8q13 0 26 4t22 12v-12q-22 -14 -49 -14q-20 1 -34.5 11t-16.5 33q-1 12 3.5 25t11.5 25t16 23t17 19h-234v700h262v-10h-252v-330h213z" />
    <glyph glyph-name="eogonek" unicode="&#x119;" horiz-adv-x="342" 
d="M263 360v-10h-213v-340h252v-10h-16q-9 -7 -18 -18t-16.5 -23.5t-12 -25.5t-3.5 -25q2 -18 13.5 -26t28.5 -8q13 0 26 4t22 12v-12q-22 -14 -49 -14q-20 1 -34.5 11t-16.5 33q-1 12 3.5 25t11.5 25t16 23t17 19h-234v700h262v-10h-252v-330h213z" />
    <glyph glyph-name="Ecaron" unicode="&#x11a;" horiz-adv-x="342" 
d="M105 821l71 -68l70 68h15l-82 -78h-7l-81 78h14zM263 360v-10h-213v-340h252v-10h-262v700h262v-10h-252v-330h213z" />
    <glyph glyph-name="ecaron" unicode="&#x11b;" horiz-adv-x="342" 
d="M105 821l71 -68l70 68h15l-82 -78h-7l-81 78h14zM263 360v-10h-213v-340h252v-10h-262v700h262v-10h-252v-330h213z" />
    <glyph glyph-name="Gcircumflex" unicode="&#x11c;" 
d="M115 753h-14l81 78h7l82 -78h-15l-70 68zM184 705q40 0 67.5 -14.5t44.5 -39t24.5 -56.5t7.5 -67v-44h-10v44q0 33 -7 63.5t-22.5 53.5t-41.5 36.5t-63 13.5q-38 0 -63.5 -13.5t-41 -36.5t-22.5 -53.5t-7 -63.5v-356q0 -33 7 -63.5t22.5 -53.5t41 -36.5t63.5 -13.5
q37 0 63 13.5t41.5 36.5t22.5 53.5t7 63.5v163h-118v10h128v-173q0 -35 -7.5 -67t-24.5 -56.5t-44.5 -39t-67.5 -14.5t-67.5 14.5t-44.5 39t-24.5 56.5t-7.5 67v356q0 35 7.5 67t24.5 56.5t44.5 39t67.5 14.5z" />
    <glyph glyph-name="gcircumflex" unicode="&#x11d;" 
d="M115 753h-14l81 78h7l82 -78h-15l-70 68zM184 705q40 0 67.5 -14.5t44.5 -39t24.5 -56.5t7.5 -67v-44h-10v44q0 33 -7 63.5t-22.5 53.5t-41.5 36.5t-63 13.5q-38 0 -63.5 -13.5t-41 -36.5t-22.5 -53.5t-7 -63.5v-356q0 -33 7 -63.5t22.5 -53.5t41 -36.5t63.5 -13.5
q37 0 63 13.5t41.5 36.5t22.5 53.5t7 63.5v163h-118v10h128v-173q0 -35 -7.5 -67t-24.5 -56.5t-44.5 -39t-67.5 -14.5t-67.5 14.5t-44.5 39t-24.5 56.5t-7.5 67v356q0 35 7.5 67t24.5 56.5t44.5 39t67.5 14.5z" />
    <glyph glyph-name="Gbreve" unicode="&#x11e;" 
d="M275 826q-2 -35 -28.5 -54t-60.5 -19q-33 0 -60 18.5t-28 54.5h10q1 -32 25 -47.5t53 -15.5t53 15.5t26 47.5h10zM184 705q40 0 67.5 -14.5t44.5 -39t24.5 -56.5t7.5 -67v-44h-10v44q0 33 -7 63.5t-22.5 53.5t-41.5 36.5t-63 13.5q-38 0 -63.5 -13.5t-41 -36.5
t-22.5 -53.5t-7 -63.5v-356q0 -33 7 -63.5t22.5 -53.5t41 -36.5t63.5 -13.5q37 0 63 13.5t41.5 36.5t22.5 53.5t7 63.5v163h-118v10h128v-173q0 -35 -7.5 -67t-24.5 -56.5t-44.5 -39t-67.5 -14.5t-67.5 14.5t-44.5 39t-24.5 56.5t-7.5 67v356q0 35 7.5 67t24.5 56.5t44.5 39
t67.5 14.5z" />
    <glyph glyph-name="gbreve" unicode="&#x11f;" 
d="M275 826q-2 -35 -28.5 -54t-60.5 -19q-33 0 -60 18.5t-28 54.5h10q1 -32 25 -47.5t53 -15.5t53 15.5t26 47.5h10zM184 705q40 0 67.5 -14.5t44.5 -39t24.5 -56.5t7.5 -67v-44h-10v44q0 33 -7 63.5t-22.5 53.5t-41.5 36.5t-63 13.5q-38 0 -63.5 -13.5t-41 -36.5
t-22.5 -53.5t-7 -63.5v-356q0 -33 7 -63.5t22.5 -53.5t41 -36.5t63.5 -13.5q37 0 63 13.5t41.5 36.5t22.5 53.5t7 63.5v163h-118v10h128v-173q0 -35 -7.5 -67t-24.5 -56.5t-44.5 -39t-67.5 -14.5t-67.5 14.5t-44.5 39t-24.5 56.5t-7.5 67v356q0 35 7.5 67t24.5 56.5t44.5 39
t67.5 14.5z" />
    <glyph glyph-name="Gdotaccent" unicode="&#x120;" 
d="M199 825v-78h-10v78h10zM184 705q40 0 67.5 -14.5t44.5 -39t24.5 -56.5t7.5 -67v-44h-10v44q0 33 -7 63.5t-22.5 53.5t-41.5 36.5t-63 13.5q-38 0 -63.5 -13.5t-41 -36.5t-22.5 -53.5t-7 -63.5v-356q0 -33 7 -63.5t22.5 -53.5t41 -36.5t63.5 -13.5q37 0 63 13.5
t41.5 36.5t22.5 53.5t7 63.5v163h-118v10h128v-173q0 -35 -7.5 -67t-24.5 -56.5t-44.5 -39t-67.5 -14.5t-67.5 14.5t-44.5 39t-24.5 56.5t-7.5 67v356q0 35 7.5 67t24.5 56.5t44.5 39t67.5 14.5z" />
    <glyph glyph-name="gdotaccent" unicode="&#x121;" 
d="M199 825v-78h-10v78h10zM184 705q40 0 67.5 -14.5t44.5 -39t24.5 -56.5t7.5 -67v-44h-10v44q0 33 -7 63.5t-22.5 53.5t-41.5 36.5t-63 13.5q-38 0 -63.5 -13.5t-41 -36.5t-22.5 -53.5t-7 -63.5v-356q0 -33 7 -63.5t22.5 -53.5t41 -36.5t63.5 -13.5q37 0 63 13.5
t41.5 36.5t22.5 53.5t7 63.5v163h-118v10h128v-173q0 -35 -7.5 -67t-24.5 -56.5t-44.5 -39t-67.5 -14.5t-67.5 14.5t-44.5 39t-24.5 56.5t-7.5 67v356q0 35 7.5 67t24.5 56.5t44.5 39t67.5 14.5z" />
    <glyph glyph-name="uni0122" unicode="&#x122;" 
d="M184 705q40 0 67.5 -14.5t44.5 -39t24.5 -56.5t7.5 -67v-44h-10v44q0 33 -7 63.5t-22.5 53.5t-41.5 36.5t-63 13.5q-38 0 -63.5 -13.5t-41 -36.5t-22.5 -53.5t-7 -63.5v-356q0 -33 7 -63.5t22.5 -53.5t41 -36.5t63.5 -13.5q37 0 63 13.5t41.5 36.5t22.5 53.5t7 63.5v163
h-118v10h128v-173q0 -35 -7.5 -67t-24.5 -56.5t-44.5 -39t-67.5 -14.5t-67.5 14.5t-44.5 39t-24.5 56.5t-7.5 67v356q0 35 7.5 67t24.5 56.5t44.5 39t67.5 14.5zM179 -112h-1v78h10v-78l-18 -62h-7z" />
    <glyph glyph-name="uni0123" unicode="&#x123;" 
d="M184 705q40 0 67.5 -14.5t44.5 -39t24.5 -56.5t7.5 -67v-44h-10v44q0 33 -7 63.5t-22.5 53.5t-41.5 36.5t-63 13.5q-38 0 -63.5 -13.5t-41 -36.5t-22.5 -53.5t-7 -63.5v-356q0 -33 7 -63.5t22.5 -53.5t41 -36.5t63.5 -13.5q37 0 63 13.5t41.5 36.5t22.5 53.5t7 63.5v163
h-118v10h128v-173q0 -35 -7.5 -67t-24.5 -56.5t-44.5 -39t-67.5 -14.5t-67.5 14.5t-44.5 39t-24.5 56.5t-7.5 67v356q0 35 7.5 67t24.5 56.5t44.5 39t67.5 14.5zM180 -112h-1v78h10v-78l-18 -62h-7z" />
    <glyph glyph-name="Hcircumflex" unicode="&#x124;" horiz-adv-x="370" 
d="M114 750h-14l81 78h7l82 -78h-15l-70 68zM50 345v-345h-10v700h10v-345h270v345h10v-700h-10v345h-270z" />
    <glyph glyph-name="hcircumflex" unicode="&#x125;" horiz-adv-x="370" 
d="M114 750h-14l81 78h7l82 -78h-15l-70 68zM50 345v-345h-10v700h10v-345h270v345h10v-700h-10v345h-270z" />
    <glyph glyph-name="Hbar" unicode="&#x126;" horiz-adv-x="370" 
d="M330 538v-538h-10v345h-270v-345h-10v538h-40v9h40v153h10v-153h270v153h10v-153h38v-9h-38zM320 538h-270v-183h270v183z" />
    <glyph glyph-name="hbar" unicode="&#x127;" horiz-adv-x="370" 
d="M330 538v-538h-10v345h-270v-345h-10v538h-40v9h40v153h10v-153h270v153h10v-153h38v-9h-38zM320 538h-270v-183h270v183z" />
    <glyph glyph-name="Itilde" unicode="&#x128;" horiz-adv-x="90" 
d="M140 795q-7 -13 -17 -24t-26 -12q-13 -1 -24.5 5t-23 13.5t-23.5 13.5t-24 6q-14 0 -24 -9.5t-17 -21.5l-9 5q8 14 20.5 24.5t29.5 11.5q13 0 25.5 -6t24 -13.5t23 -13.5t22.5 -5q12 1 20.5 11t13.5 20zM50 700v-700h-10v700h10z" />
    <glyph glyph-name="itilde" unicode="&#x129;" horiz-adv-x="90" 
d="M140 795q-7 -13 -17 -24t-26 -12q-13 -1 -24.5 5t-23 13.5t-23.5 13.5t-24 6q-14 0 -24 -9.5t-17 -21.5l-9 5q8 14 20.5 24.5t29.5 11.5q13 0 25.5 -6t24 -13.5t23 -13.5t22.5 -5q12 1 20.5 11t13.5 20zM50 700v-700h-10v700h10z" />
    <glyph glyph-name="Imacron" unicode="&#x12a;" horiz-adv-x="90" 
d="M112 779v-9h-134v9h134zM50 700v-700h-10v700h10z" />
    <glyph glyph-name="imacron" unicode="&#x12b;" horiz-adv-x="90" 
d="M112 779v-9h-134v9h134zM50 700v-700h-10v700h10z" />
    <glyph glyph-name="Ibreve" unicode="&#x12c;" horiz-adv-x="90" 
d="M134 816q-2 -35 -28.5 -54t-60.5 -19q-33 0 -60 18.5t-28 54.5h10q1 -32 25 -47.5t53 -15.5t53 15.5t26 47.5h10zM40 700h10v-700h-10v700z" />
    <glyph glyph-name="ibreve" unicode="&#x12d;" horiz-adv-x="90" 
d="M134 816q-2 -35 -28.5 -54t-60.5 -19q-33 0 -60 18.5t-28 54.5h10q1 -32 25 -47.5t53 -15.5t53 15.5t26 47.5h10zM40 700h10v-700h-10v700z" />
    <glyph glyph-name="Iogonek" unicode="&#x12e;" horiz-adv-x="90" 
d="M49 0q-9 -7 -18 -18t-16 -23.5t-11.5 -25.5t-3.5 -25q2 -18 13.5 -26t28.5 -8q13 0 26 4t22 12v-12q-22 -14 -49 -14q-20 1 -34.5 11t-16.5 33t13 47.5t37 44.5h-1l1 700h10v-700h-1z" />
    <glyph glyph-name="iogonek" unicode="&#x12f;" horiz-adv-x="90" 
d="M49 0q-9 -7 -18 -18t-16 -23.5t-11.5 -25.5t-3.5 -25q2 -18 13.5 -26t28.5 -8q13 0 26 4t22 12v-12q-22 -14 -49 -14q-20 1 -34.5 11t-16.5 33t13 47.5t37 44.5h-1l1 700h10v-700h-1z" />
    <glyph glyph-name="Idotaccent" unicode="&#x130;" horiz-adv-x="90" 
d="M50 821v-78h-10v78h10zM50 700v-700h-10v700h10z" />
    <glyph glyph-name="dotlessi" unicode="&#x131;" horiz-adv-x="90" 
d="M50 700v-700h-10v700h10z" />
    <glyph glyph-name="IJ" unicode="&#x132;" horiz-adv-x="342" 
d="M50 700v-700h-10v700h10zM302 171q0 -88 -33.5 -127t-102.5 -44h-36v10h36q69 6 97.5 44.5t28.5 116.5v529h10v-529z" />
    <glyph glyph-name="ij" unicode="&#x133;" horiz-adv-x="342" 
d="M50 700v-700h-10v700h10zM302 171q0 -88 -33.5 -127t-102.5 -44h-36v10h36q69 6 97.5 44.5t28.5 116.5v529h10v-529z" />
    <glyph glyph-name="Jcircumflex" unicode="&#x134;" horiz-adv-x="252" 
d="M136 744h-14l81 78h7l82 -78h-15l-70 68zM212 171q0 -85 -32.5 -125t-97.5 -45q-10 -1 -20.5 -1.5t-21.5 0.5v10q11 -1 21.5 -0.5t20.5 1.5q63 6 91.5 43.5t28.5 116.5v529h10v-529z" />
    <glyph glyph-name="jcircumflex" unicode="&#x135;" horiz-adv-x="252" 
d="M136 744h-14l81 78h7l82 -78h-15l-70 68zM212 171q0 -85 -32.5 -125t-97.5 -45q-10 -1 -20.5 -1.5t-21.5 0.5v10q11 -1 21.5 -0.5t20.5 1.5q63 6 91.5 43.5t28.5 116.5v529h10v-529z" />
    <glyph glyph-name="uni0136" unicode="&#x136;" horiz-adv-x="399" 
d="M106 357l-56 -82v-275h-10v700h10v-407l276 407h12l-226 -334l247 -366h-12zM180 -112h-1v78h10v-78l-18 -62h-7z" />
    <glyph glyph-name="uni0137" unicode="&#x137;" horiz-adv-x="399" 
d="M106 357l-56 -82v-275h-10v700h10v-407l276 407h12l-226 -334l247 -366h-12zM180 -112h-1v78h10v-78l-18 -62h-7z" />
    <glyph glyph-name="kgreenlandic" unicode="&#x138;" horiz-adv-x="399" 
d="M106 357l-56 -82v-275h-10v700h10v-407l276 407h12l-226 -334l247 -366h-12z" />
    <glyph glyph-name="Lacute" unicode="&#x139;" horiz-adv-x="332" 
d="M119 828l-74 -86h-13l73 86h14zM40 0v700h10v-690h242v-10h-252z" />
    <glyph glyph-name="lacute" unicode="&#x13a;" horiz-adv-x="332" 
d="M109 830l-74 -86h-13l73 86h14zM40 0v700h10v-690h242v-10h-252z" />
    <glyph glyph-name="uni013B" unicode="&#x13b;" horiz-adv-x="332" 
d="M40 0v700h10v-690h242v-10h-252zM170 -117h-1v78h10v-78l-18 -62h-7z" />
    <glyph glyph-name="uni013C" unicode="&#x13c;" horiz-adv-x="332" 
d="M40 0v700h10v-690h242v-10h-252zM180 -112h-1v78h10v-78l-18 -62h-7z" />
    <glyph glyph-name="Lcaron" unicode="&#x13d;" horiz-adv-x="332" 
d="M40 0v700h10v-690h242v-10h-252zM219 622h-1v78h10v-78l-18 -62h-7z" />
    <glyph glyph-name="lcaron" unicode="&#x13e;" horiz-adv-x="332" 
d="M40 0v700h10v-690h242v-10h-252zM219 622h-1v78h10v-78l-18 -62h-7z" />
    <glyph glyph-name="Ldot" unicode="&#x13f;" horiz-adv-x="332" 
d="M40 0v700h10v-690h242v-10h-252zM181 394v-78h-10v78h10z" />
    <glyph glyph-name="ldot" unicode="&#x140;" horiz-adv-x="332" 
d="M40 0v700h10v-690h242v-10h-252zM181 394v-78h-10v78h10z" />
    <glyph glyph-name="Lslash" unicode="&#x141;" horiz-adv-x="347" 
d="M65 346v-336h242v-10h-252v336l-55 -47v13l55 47v351h10v-341l82 76v-13z" />
    <glyph glyph-name="lslash" unicode="&#x142;" horiz-adv-x="347" 
d="M55 336l-55 -47v13l55 47v351h10v-341l82 76v-13l-82 -76v-336h242v-10h-252v336z" />
    <glyph glyph-name="Nacute" unicode="&#x143;" horiz-adv-x="371" 
d="M255 831l-74 -86h-13l73 86h14zM50 1h-10v700h17l264 -687v687h10v-700h-15l-266 690v-690z" />
    <glyph glyph-name="nacute" unicode="&#x144;" horiz-adv-x="371" 
d="M255 831l-74 -86h-13l73 86h14zM50 1h-10v700h17l264 -687v687h10v-700h-15l-266 690v-690z" />
    <glyph glyph-name="uni0145" unicode="&#x145;" horiz-adv-x="371" 
d="M50 0h-10v700h17l264 -687v687h10v-700h-15l-266 690v-690zM180 -112h-1v78h10v-78l-18 -62h-7z" />
    <glyph glyph-name="uni0146" unicode="&#x146;" horiz-adv-x="371" 
d="M50 0h-10v700h17l264 -687v687h10v-700h-15l-266 690v-690zM180 -112h-1v78h10v-78l-18 -62h-7z" />
    <glyph glyph-name="Ncaron" unicode="&#x147;" horiz-adv-x="371" 
d="M117 828l71 -68l70 68h15l-82 -78h-7l-81 78h14zM50 0h-10v700h17l264 -687v687h10v-700h-15l-266 690v-690z" />
    <glyph glyph-name="ncaron" unicode="&#x148;" horiz-adv-x="371" 
d="M117 828l71 -68l70 68h15l-82 -78h-7l-81 78h14zM50 0h-10v700h17l264 -687v687h10v-700h-15l-266 690v-690z" />
    <glyph glyph-name="napostrophe" unicode="&#x149;" horiz-adv-x="421" 
d="M26 622h-1v78h10v-78l-18 -62h-7zM100 0h-10v700h17l264 -687v687h10v-700h-15l-266 690v-690z" />
    <glyph glyph-name="Omacron" unicode="&#x14c;" horiz-adv-x="373" 
d="M269 780v-9h-162v9h162zM186 705q40 0 68 -14t45.5 -38.5t25.5 -56.5t8 -68v-356q0 -36 -8 -68t-25.5 -56.5t-45.5 -38.5t-68 -14t-67.5 14t-45 38.5t-25.5 56.5t-8 68v356q0 36 8 68t25.5 56.5t45 38.5t67.5 14zM186 695q-38 0 -64 -13.5t-42 -36.5t-23 -53t-7 -64v-356
q0 -34 7 -64.5t23 -53t42 -36t64 -13.5t64 13.5t42.5 36t23.5 53t7 64.5v356q0 34 -7 64t-23.5 53t-42.5 36.5t-64 13.5z" />
    <glyph glyph-name="omacron" unicode="&#x14d;" horiz-adv-x="373" 
d="M269 780v-9h-162v9h162zM186 705q40 0 68 -14t45.5 -38.5t25.5 -56.5t8 -68v-356q0 -36 -8 -68t-25.5 -56.5t-45.5 -38.5t-68 -14t-67.5 14t-45 38.5t-25.5 56.5t-8 68v356q0 36 8 68t25.5 56.5t45 38.5t67.5 14zM186 695q-38 0 -64 -13.5t-42 -36.5t-23 -53t-7 -64v-356
q0 -34 7 -64.5t23 -53t42 -36t64 -13.5t64 13.5t42.5 36t23.5 53t7 64.5v356q0 34 -7 64t-23.5 53t-42.5 36.5t-64 13.5z" />
    <glyph glyph-name="Obreve" unicode="&#x14e;" horiz-adv-x="373" 
d="M275 826q-2 -35 -28.5 -54t-60.5 -19q-33 0 -60 18.5t-28 54.5h10q1 -32 25 -47.5t53 -15.5t53 15.5t26 47.5h10zM186 705q40 0 68 -14t45.5 -38.5t25.5 -56.5t8 -68v-356q0 -36 -8 -68t-25.5 -56.5t-45.5 -38.5t-68 -14t-67.5 14t-45 38.5t-25.5 56.5t-8 68v356
q0 36 8 68t25.5 56.5t45 38.5t67.5 14zM186 695q-38 0 -64 -13.5t-42 -36.5t-23 -53t-7 -64v-356q0 -34 7 -64.5t23 -53t42 -36t64 -13.5t64 13.5t42.5 36t23.5 53t7 64.5v356q0 34 -7 64t-23.5 53t-42.5 36.5t-64 13.5z" />
    <glyph glyph-name="obreve" unicode="&#x14f;" horiz-adv-x="373" 
d="M275 826q-2 -35 -28.5 -54t-60.5 -19q-33 0 -60 18.5t-28 54.5h10q1 -32 25 -47.5t53 -15.5t53 15.5t26 47.5h10zM186 705q40 0 68 -14t45.5 -38.5t25.5 -56.5t8 -68v-356q0 -36 -8 -68t-25.5 -56.5t-45.5 -38.5t-68 -14t-67.5 14t-45 38.5t-25.5 56.5t-8 68v356
q0 36 8 68t25.5 56.5t45 38.5t67.5 14zM186 695q-38 0 -64 -13.5t-42 -36.5t-23 -53t-7 -64v-356q0 -34 7 -64.5t23 -53t42 -36t64 -13.5t64 13.5t42.5 36t23.5 53t7 64.5v356q0 34 -7 64t-23.5 53t-42.5 36.5t-64 13.5z" />
    <glyph glyph-name="Ohungarumlaut" unicode="&#x150;" horiz-adv-x="373" 
d="M226 838l-74 -86h-13l73 86h14zM285 838l-74 -86h-13l73 86h14zM186 705q40 0 68 -14t45.5 -38.5t25.5 -56.5t8 -68v-356q0 -36 -8 -68t-25.5 -56.5t-45.5 -38.5t-68 -14t-67.5 14t-45 38.5t-25.5 56.5t-8 68v356q0 36 8 68t25.5 56.5t45 38.5t67.5 14zM186 695
q-38 0 -64 -13.5t-42 -36.5t-23 -53t-7 -64v-356q0 -34 7 -64.5t23 -53t42 -36t64 -13.5t64 13.5t42.5 36t23.5 53t7 64.5v356q0 34 -7 64t-23.5 53t-42.5 36.5t-64 13.5z" />
    <glyph glyph-name="ohungarumlaut" unicode="&#x151;" horiz-adv-x="373" 
d="M226 838l-74 -86h-13l73 86h14zM285 838l-74 -86h-13l73 86h14zM186 705q40 0 68 -14t45.5 -38.5t25.5 -56.5t8 -68v-356q0 -36 -8 -68t-25.5 -56.5t-45.5 -38.5t-68 -14t-67.5 14t-45 38.5t-25.5 56.5t-8 68v356q0 36 8 68t25.5 56.5t45 38.5t67.5 14zM186 695
q-38 0 -64 -13.5t-42 -36.5t-23 -53t-7 -64v-356q0 -34 7 -64.5t23 -53t42 -36t64 -13.5t64 13.5t42.5 36t23.5 53t7 64.5v356q0 34 -7 64t-23.5 53t-42.5 36.5t-64 13.5z" />
    <glyph glyph-name="OE" unicode="&#x152;" horiz-adv-x="558" 
d="M485 360v-10h-181v-340h214v-10h-343q-38 0 -64 15t-42 39.5t-22.5 56t-6.5 64.5v350q0 33 6.5 64.5t22.5 56t42 39.5t64 15h343v-10h-214v-330h181zM175 690q-36 0 -60 -14t-38.5 -37.5t-20.5 -53t-6 -60.5v-350q0 -31 6 -60.5t20.5 -53t38.5 -37.5t60 -14h119v680h-119
z" />
    <glyph glyph-name="oe" unicode="&#x153;" horiz-adv-x="558" 
d="M485 360v-10h-181v-340h214v-10h-343q-38 0 -64 15t-42 39.5t-22.5 56t-6.5 64.5v350q0 33 6.5 64.5t22.5 56t42 39.5t64 15h343v-10h-214v-330h181zM175 690q-36 0 -60 -14t-38.5 -37.5t-20.5 -53t-6 -60.5v-350q0 -31 6 -60.5t20.5 -53t38.5 -37.5t60 -14h119v680h-119
z" />
    <glyph glyph-name="Racute" unicode="&#x154;" horiz-adv-x="377" 
d="M232 838l-74 -86h-13l73 86h14zM175 700q77 0 109.5 -43t32.5 -114v-63q0 -66 -28 -102.5t-89 -45.5q61 -8 89 -44t28 -95v-110q0 -20 3.5 -43.5t16.5 -39.5h-12q-11 17 -14.5 40t-3.5 43v110q0 40 -12 66.5t-34 41.5t-52.5 21t-66.5 6h-92v-328h-10v700h135zM142 338
q39 0 69.5 6t52 21.5t32.5 43t11 71.5v63q0 68 -29.5 107.5t-102.5 39.5h-125v-352h92z" />
    <glyph glyph-name="racute" unicode="&#x155;" horiz-adv-x="377" 
d="M232 838l-74 -86h-13l73 86h14zM175 700q77 0 109.5 -43t32.5 -114v-63q0 -66 -28 -102.5t-89 -45.5q61 -8 89 -44t28 -95v-110q0 -20 3.5 -43.5t16.5 -39.5h-12q-11 17 -14.5 40t-3.5 43v110q0 40 -12 66.5t-34 41.5t-52.5 21t-66.5 6h-92v-328h-10v700h135zM142 338
q39 0 69.5 6t52 21.5t32.5 43t11 71.5v63q0 68 -29.5 107.5t-102.5 39.5h-125v-352h92z" />
    <glyph glyph-name="uni0156" unicode="&#x156;" horiz-adv-x="377" 
d="M175 700q77 0 109.5 -43t32.5 -114v-63q0 -66 -28 -102.5t-89 -45.5q61 -8 89 -44t28 -95v-110q0 -20 3.5 -43.5t16.5 -39.5h-12q-11 17 -14.5 40t-3.5 43v110q0 40 -12 66.5t-34 41.5t-52.5 21t-66.5 6h-92v-328h-10v700h135zM142 338q39 0 69.5 6t52 21.5t32.5 43
t11 71.5v63q0 68 -29.5 107.5t-102.5 39.5h-125v-352h92zM178 -111h-1v78h10v-78l-18 -62h-7z" />
    <glyph glyph-name="uni0157" unicode="&#x157;" horiz-adv-x="377" 
d="M175 700q77 0 109.5 -43t32.5 -114v-63q0 -66 -28 -102.5t-89 -45.5q61 -8 89 -44t28 -95v-110q0 -20 3.5 -43.5t16.5 -39.5h-12q-11 17 -14.5 40t-3.5 43v110q0 40 -12 66.5t-34 41.5t-52.5 21t-66.5 6h-92v-328h-10v700h135zM142 338q39 0 69.5 6t52 21.5t32.5 43
t11 71.5v63q0 68 -29.5 107.5t-102.5 39.5h-125v-352h92zM180 -112h-1v78h10v-78l-18 -62h-7z" />
    <glyph glyph-name="Rcaron" unicode="&#x158;" horiz-adv-x="377" 
d="M97 829l71 -68l70 68h15l-82 -78h-7l-81 78h14zM175 700q77 0 109.5 -43t32.5 -114v-63q0 -66 -28 -102.5t-89 -45.5q61 -8 89 -44t28 -95v-110q0 -20 3.5 -43.5t16.5 -39.5h-12q-11 17 -14.5 40t-3.5 43v110q0 40 -12 66.5t-34 41.5t-52.5 21t-66.5 6h-92v-328h-10v700
h135zM142 338q39 0 69.5 6t52 21.5t32.5 43t11 71.5v63q0 68 -29.5 107.5t-102.5 39.5h-125v-352h92z" />
    <glyph glyph-name="rcaron" unicode="&#x159;" horiz-adv-x="377" 
d="M97 829l71 -68l70 68h15l-82 -78h-7l-81 78h14zM175 700q77 0 109.5 -43t32.5 -114v-63q0 -66 -28 -102.5t-89 -45.5q61 -8 89 -44t28 -95v-110q0 -20 3.5 -43.5t16.5 -39.5h-12q-11 17 -14.5 40t-3.5 43v110q0 40 -12 66.5t-34 41.5t-52.5 21t-66.5 6h-92v-328h-10v700
h135zM142 338q39 0 69.5 6t52 21.5t32.5 43t11 71.5v63q0 68 -29.5 107.5t-102.5 39.5h-125v-352h92z" />
    <glyph glyph-name="Sacute" unicode="&#x15a;" 
d="M255 838l-74 -86h-13l73 86h14zM185 705q39 0 66.5 -14t44 -38t24 -55.5t7.5 -66.5v-12h-10v12q0 33 -6.5 62.5t-22 52t-41 36t-62.5 13.5t-62.5 -13t-41 -35.5t-22 -52t-6.5 -62.5q0 -46 20.5 -77.5t51 -56t66 -46t66 -46.5t51 -57.5t20.5 -79.5q0 -36 -7.5 -67.5
t-24.5 -55t-44.5 -37.5t-67.5 -14t-67.5 14t-44.5 37.5t-24.5 55t-7.5 67.5v33h10v-33q0 -34 7 -63.5t22.5 -52t41 -35.5t63.5 -13q37 0 63 13t41.5 35.5t22.5 52t7 63.5q0 45 -20.5 76.5t-51 55.5t-66 45.5t-66 46.5t-51 58t-20.5 81q0 76 33 124t109 49z" />
    <glyph glyph-name="sacute" unicode="&#x15b;" 
d="M255 838l-74 -86h-13l73 86h14zM185 705q39 0 66.5 -14t44 -38t24 -55.5t7.5 -66.5v-12h-10v12q0 33 -6.5 62.5t-22 52t-41 36t-62.5 13.5t-62.5 -13t-41 -35.5t-22 -52t-6.5 -62.5q0 -46 20.5 -77.5t51 -56t66 -46t66 -46.5t51 -57.5t20.5 -79.5q0 -36 -7.5 -67.5
t-24.5 -55t-44.5 -37.5t-67.5 -14t-67.5 14t-44.5 37.5t-24.5 55t-7.5 67.5v33h10v-33q0 -34 7 -63.5t22.5 -52t41 -35.5t63.5 -13q37 0 63 13t41.5 35.5t22.5 52t7 63.5q0 45 -20.5 76.5t-51 55.5t-66 45.5t-66 46.5t-51 58t-20.5 81q0 76 33 124t109 49z" />
    <glyph glyph-name="Scircumflex" unicode="&#x15c;" 
d="M121 750h-14l81 78h7l82 -78h-15l-70 68zM185 705q39 0 66.5 -14t44 -38t24 -55.5t7.5 -66.5v-12h-10v12q0 33 -6.5 62.5t-22 52t-41 36t-62.5 13.5t-62.5 -13t-41 -35.5t-22 -52t-6.5 -62.5q0 -46 20.5 -77.5t51 -56t66 -46t66 -46.5t51 -57.5t20.5 -79.5
q0 -36 -7.5 -67.5t-24.5 -55t-44.5 -37.5t-67.5 -14t-67.5 14t-44.5 37.5t-24.5 55t-7.5 67.5v33h10v-33q0 -34 7 -63.5t22.5 -52t41 -35.5t63.5 -13q37 0 63 13t41.5 35.5t22.5 52t7 63.5q0 45 -20.5 76.5t-51 55.5t-66 45.5t-66 46.5t-51 58t-20.5 81q0 76 33 124t109 49z
" />
    <glyph glyph-name="scircumflex" unicode="&#x15d;" 
d="M121 750h-14l81 78h7l82 -78h-15l-70 68zM185 705q39 0 66.5 -14t44 -38t24 -55.5t7.5 -66.5v-12h-10v12q0 33 -6.5 62.5t-22 52t-41 36t-62.5 13.5t-62.5 -13t-41 -35.5t-22 -52t-6.5 -62.5q0 -46 20.5 -77.5t51 -56t66 -46t66 -46.5t51 -57.5t20.5 -79.5
q0 -36 -7.5 -67.5t-24.5 -55t-44.5 -37.5t-67.5 -14t-67.5 14t-44.5 37.5t-24.5 55t-7.5 67.5v33h10v-33q0 -34 7 -63.5t22.5 -52t41 -35.5t63.5 -13q37 0 63 13t41.5 35.5t22.5 52t7 63.5q0 45 -20.5 76.5t-51 55.5t-66 45.5t-66 46.5t-51 58t-20.5 81q0 76 33 124t109 49z
" />
    <glyph glyph-name="Scedilla" unicode="&#x15e;" 
d="M185 705q39 0 66.5 -14t44 -38t24 -55.5t7.5 -66.5v-12h-10v12q0 33 -6.5 62.5t-22 52t-41 36t-62.5 13.5t-62.5 -13t-41 -35.5t-22 -52t-6.5 -62.5q0 -46 20.5 -77.5t51 -56t66 -46t66 -46.5t51 -57.5t20.5 -79.5q0 -35 -7 -66t-23.5 -54.5t-42.5 -38t-63 -15.5v-34
q14 0 27.5 -2.5t24 -8.5t17 -16.5t6.5 -26.5t-8 -27.5t-20 -18.5t-26.5 -10t-27.5 -3q-14 0 -29 3.5t-27 10.5t-20 18.5t-8 27.5v3h10v-3q0 -14 7 -23.5t18 -15.5t24 -9t25 -3q11 0 24 2.5t23.5 8.5t17.5 15.5t7 23.5q0 15 -6.5 24t-16.5 13.5t-22.5 6t-24.5 1.5h-5v43
q-39 0 -66 14t-44 38t-24.5 55.5t-7.5 66.5v33h10v-33q0 -34 7 -63.5t22.5 -52t41 -35.5t63.5 -13q37 0 63 13t41.5 35.5t22.5 52t7 63.5q0 45 -20.5 76.5t-51 55.5t-66 45.5t-66 46.5t-51 58t-20.5 81q0 76 33 124t109 49z" />
    <glyph glyph-name="scedilla" unicode="&#x15f;" 
d="M185 705q39 0 66.5 -14t44 -38t24 -55.5t7.5 -66.5v-12h-10v12q0 33 -6.5 62.5t-22 52t-41 36t-62.5 13.5t-62.5 -13t-41 -35.5t-22 -52t-6.5 -62.5q0 -46 20.5 -77.5t51 -56t66 -46t66 -46.5t51 -57.5t20.5 -79.5q0 -35 -7 -66t-23.5 -54.5t-42.5 -38t-63 -15.5v-34
q14 0 27.5 -2.5t24 -8.5t17 -16.5t6.5 -26.5t-8 -27.5t-20 -18.5t-26.5 -10t-27.5 -3q-14 0 -29 3.5t-27 10.5t-20 18.5t-8 27.5v3h10v-3q0 -14 7 -23.5t18 -15.5t24 -9t25 -3q11 0 24 2.5t23.5 8.5t17.5 15.5t7 23.5q0 15 -6.5 24t-16.5 13.5t-22.5 6t-24.5 1.5h-5v43
q-39 0 -66 14t-44 38t-24.5 55.5t-7.5 66.5v33h10v-33q0 -34 7 -63.5t22.5 -52t41 -35.5t63.5 -13q37 0 63 13t41.5 35.5t22.5 52t7 63.5q0 45 -20.5 76.5t-51 55.5t-66 45.5t-66 46.5t-51 58t-20.5 81q0 76 33 124t109 49z" />
    <glyph glyph-name="Scaron" unicode="&#x160;" 
d="M117 829l71 -68l70 68h15l-82 -78h-7l-81 78h14zM185 705q39 0 66.5 -14t44 -38t24 -55.5t7.5 -66.5v-12h-10v12q0 33 -6.5 62.5t-22 52t-41 36t-62.5 13.5t-62.5 -13t-41 -35.5t-22 -52t-6.5 -62.5q0 -46 20.5 -77.5t51 -56t66 -46t66 -46.5t51 -57.5t20.5 -79.5
q0 -36 -7.5 -67.5t-24.5 -55t-44.5 -37.5t-67.5 -14t-67.5 14t-44.5 37.5t-24.5 55t-7.5 67.5v33h10v-33q0 -34 7 -63.5t22.5 -52t41 -35.5t63.5 -13q37 0 63 13t41.5 35.5t22.5 52t7 63.5q0 45 -20.5 76.5t-51 55.5t-66 45.5t-66 46.5t-51 58t-20.5 81q0 76 33 124t109 49z
" />
    <glyph glyph-name="scaron" unicode="&#x161;" 
d="M117 829l71 -68l70 68h15l-82 -78h-7l-81 78h14zM185 705q39 0 66.5 -14t44 -38t24 -55.5t7.5 -66.5v-12h-10v12q0 33 -6.5 62.5t-22 52t-41 36t-62.5 13.5t-62.5 -13t-41 -35.5t-22 -52t-6.5 -62.5q0 -46 20.5 -77.5t51 -56t66 -46t66 -46.5t51 -57.5t20.5 -79.5
q0 -36 -7.5 -67.5t-24.5 -55t-44.5 -37.5t-67.5 -14t-67.5 14t-44.5 37.5t-24.5 55t-7.5 67.5v33h10v-33q0 -34 7 -63.5t22.5 -52t41 -35.5t63.5 -13q37 0 63 13t41.5 35.5t22.5 52t7 63.5q0 45 -20.5 76.5t-51 55.5t-66 45.5t-66 46.5t-51 58t-20.5 81q0 76 33 124t109 49z
" />
    <glyph glyph-name="uni0162" unicode="&#x162;" horiz-adv-x="406" 
d="M207 0v-35q14 0 27.5 -2.5t24.5 -8.5t17.5 -16.5t6.5 -26.5t-8 -27.5t-20 -18.5t-26.5 -10t-27.5 -3q-14 0 -29 3.5t-27 10.5t-20 18.5t-8 27.5v3h10v-3q0 -14 7 -23.5t18 -15.5t24 -9t25 -3q11 0 24 2.5t23.5 8.5t17.5 15.5t7 23.5q0 15 -6.5 24t-16.5 13.5t-22.5 6
t-24.5 1.5h-4v44h-1v690h-158v10h326v-10h-158v-690h-1z" />
    <glyph glyph-name="uni0163" unicode="&#x163;" horiz-adv-x="406" 
d="M207 0v-35q14 0 27.5 -2.5t24.5 -8.5t17.5 -16.5t6.5 -26.5t-8 -27.5t-20 -18.5t-26.5 -10t-27.5 -3q-14 0 -29 3.5t-27 10.5t-20 18.5t-8 27.5v3h10v-3q0 -14 7 -23.5t18 -15.5t24 -9t25 -3q11 0 24 2.5t23.5 8.5t17.5 15.5t7 23.5q0 15 -6.5 24t-16.5 13.5t-22.5 6
t-24.5 1.5h-4v44h-1v690h-158v10h326v-10h-158v-690h-1z" />
    <glyph glyph-name="Tcaron" unicode="&#x164;" horiz-adv-x="406" 
d="M132 822l71 -68l70 68h15l-82 -78h-7l-81 78h14zM198 0v690h-158v10h326v-10h-158v-690h-10z" />
    <glyph glyph-name="tcaron" unicode="&#x165;" horiz-adv-x="406" 
d="M132 822l71 -68l70 68h15l-82 -78h-7l-81 78h14zM198 0v690h-158v10h326v-10h-158v-690h-10z" />
    <glyph glyph-name="Tbar" unicode="&#x166;" horiz-adv-x="406" 
d="M290 453v-9h-82v-444h-10v444h-82v9h82v237h-158v10h326v-10h-158v-237h82z" />
    <glyph glyph-name="tbar" unicode="&#x167;" horiz-adv-x="406" 
d="M290 453v-9h-82v-444h-10v444h-82v9h82v237h-158v10h326v-10h-158v-237h82z" />
    <glyph glyph-name="Utilde" unicode="&#x168;" horiz-adv-x="363" 
d="M277 797q-7 -13 -17 -24t-26 -12q-13 -1 -24.5 5t-23 13.5t-23.5 13.5t-24 6q-14 0 -24 -9.5t-17 -21.5l-9 5q8 14 20.5 24.5t29.5 11.5q13 0 25.5 -6t24 -13.5t23 -13.5t22.5 -5q12 1 20.5 11t13.5 20zM323 174q0 -35 -7 -67.5t-23.5 -57.5t-43.5 -39.5t-67 -14.5
t-67.5 14.5t-44 39.5t-23.5 57.5t-7 67.5v526h10v-526q0 -33 6.5 -64t21.5 -54t40.5 -37t63.5 -14q37 0 62.5 14t40.5 37t21.5 54t6.5 64v526h10v-526z" />
    <glyph glyph-name="utilde" unicode="&#x169;" horiz-adv-x="363" 
d="M277 797q-7 -13 -17 -24t-26 -12q-13 -1 -24.5 5t-23 13.5t-23.5 13.5t-24 6q-14 0 -24 -9.5t-17 -21.5l-9 5q8 14 20.5 24.5t29.5 11.5q13 0 25.5 -6t24 -13.5t23 -13.5t22.5 -5q12 1 20.5 11t13.5 20zM323 174q0 -35 -7 -67.5t-23.5 -57.5t-43.5 -39.5t-67 -14.5
t-67.5 14.5t-44 39.5t-23.5 57.5t-7 67.5v526h10v-526q0 -33 6.5 -64t21.5 -54t40.5 -37t63.5 -14q37 0 62.5 14t40.5 37t21.5 54t6.5 64v526h10v-526z" />
    <glyph glyph-name="Umacron" unicode="&#x16a;" horiz-adv-x="363" 
d="M263 779v-9h-154v9h154zM323 174q0 -35 -7 -67.5t-23.5 -57.5t-43.5 -39.5t-67 -14.5t-67.5 14.5t-44 39.5t-23.5 57.5t-7 67.5v526h10v-526q0 -33 6.5 -64t21.5 -54t40.5 -37t63.5 -14q37 0 62.5 14t40.5 37t21.5 54t6.5 64v526h10v-526z" />
    <glyph glyph-name="umacron" unicode="&#x16b;" horiz-adv-x="363" 
d="M263 779v-9h-154v9h154zM323 174q0 -35 -7 -67.5t-23.5 -57.5t-43.5 -39.5t-67 -14.5t-67.5 14.5t-44 39.5t-23.5 57.5t-7 67.5v526h10v-526q0 -33 6.5 -64t21.5 -54t40.5 -37t63.5 -14q37 0 62.5 14t40.5 37t21.5 54t6.5 64v526h10v-526z" />
    <glyph glyph-name="Ubreve" unicode="&#x16c;" horiz-adv-x="363" 
d="M272 816q-2 -35 -28.5 -54t-60.5 -19q-33 0 -60 18.5t-28 54.5h10q1 -32 25 -47.5t53 -15.5t53 15.5t26 47.5h10zM323 174q0 -35 -7 -67.5t-23.5 -57.5t-43.5 -39.5t-67 -14.5t-67.5 14.5t-44 39.5t-23.5 57.5t-7 67.5v526h10v-526q0 -33 6.5 -64t21.5 -54t40.5 -37
t63.5 -14q37 0 62.5 14t40.5 37t21.5 54t6.5 64v526h10v-526z" />
    <glyph glyph-name="ubreve" unicode="&#x16d;" horiz-adv-x="363" 
d="M272 816q-2 -35 -28.5 -54t-60.5 -19q-33 0 -60 18.5t-28 54.5h10q1 -32 25 -47.5t53 -15.5t53 15.5t26 47.5h10zM323 174q0 -35 -7 -67.5t-23.5 -57.5t-43.5 -39.5t-67 -14.5t-67.5 14.5t-44 39.5t-23.5 57.5t-7 67.5v526h10v-526q0 -33 6.5 -64t21.5 -54t40.5 -37
t63.5 -14q37 0 62.5 14t40.5 37t21.5 54t6.5 64v526h10v-526z" />
    <glyph glyph-name="Uring" unicode="&#x16e;" horiz-adv-x="363" 
d="M188 854q25 0 42.5 -16.5t17.5 -41.5q0 -26 -17.5 -42.5t-42.5 -16.5t-42.5 16.5t-17.5 42.5q0 25 17.5 41.5t42.5 16.5zM188 844q-21 0 -35.5 -13.5t-14.5 -34.5q0 -22 14.5 -35.5t35.5 -13.5q20 0 35 13.5t15 35.5q0 21 -15 34.5t-35 13.5zM323 174q0 -35 -7 -67.5
t-23.5 -57.5t-43.5 -39.5t-67 -14.5t-67.5 14.5t-44 39.5t-23.5 57.5t-7 67.5v526h10v-526q0 -33 6.5 -64t21.5 -54t40.5 -37t63.5 -14q37 0 62.5 14t40.5 37t21.5 54t6.5 64v526h10v-526z" />
    <glyph glyph-name="uring" unicode="&#x16f;" horiz-adv-x="363" 
d="M188 854q25 0 42.5 -16.5t17.5 -41.5q0 -26 -17.5 -42.5t-42.5 -16.5t-42.5 16.5t-17.5 42.5q0 25 17.5 41.5t42.5 16.5zM188 844q-21 0 -35.5 -13.5t-14.5 -34.5q0 -22 14.5 -35.5t35.5 -13.5q20 0 35 13.5t15 35.5q0 21 -15 34.5t-35 13.5zM323 174q0 -35 -7 -67.5
t-23.5 -57.5t-43.5 -39.5t-67 -14.5t-67.5 14.5t-44 39.5t-23.5 57.5t-7 67.5v526h10v-526q0 -33 6.5 -64t21.5 -54t40.5 -37t63.5 -14q37 0 62.5 14t40.5 37t21.5 54t6.5 64v526h10v-526z" />
    <glyph glyph-name="Uhungarumlaut" unicode="&#x170;" horiz-adv-x="363" 
d="M220 835l-74 -86h-13l73 86h14zM279 835l-74 -86h-13l73 86h14zM323 174q0 -35 -7 -67.5t-23.5 -57.5t-43.5 -39.5t-67 -14.5t-67.5 14.5t-44 39.5t-23.5 57.5t-7 67.5v526h10v-526q0 -33 6.5 -64t21.5 -54t40.5 -37t63.5 -14q37 0 62.5 14t40.5 37t21.5 54t6.5 64v526
h10v-526z" />
    <glyph glyph-name="uhungarumlaut" unicode="&#x171;" horiz-adv-x="363" 
d="M220 835l-74 -86h-13l73 86h14zM279 835l-74 -86h-13l73 86h14zM323 174q0 -35 -7 -67.5t-23.5 -57.5t-43.5 -39.5t-67 -14.5t-67.5 14.5t-44 39.5t-23.5 57.5t-7 67.5v526h10v-526q0 -33 6.5 -64t21.5 -54t40.5 -37t63.5 -14q37 0 62.5 14t40.5 37t21.5 54t6.5 64v526
h10v-526z" />
    <glyph glyph-name="Uogonek" unicode="&#x172;" horiz-adv-x="363" 
d="M323 174q0 -30 -5 -58.5t-17 -52t-31 -40t-47 -23.5q-9 -7 -18 -18t-16.5 -23.5t-12 -25.5t-3.5 -25q2 -18 13.5 -26t28.5 -8q13 0 26 4t22 12v-12q-22 -14 -49 -14q-20 1 -34.5 11t-16.5 33t12 47.5t31 41.5q-6 -1 -12 -1.5t-12 -0.5q-40 0 -67.5 14.5t-44 39.5
t-23.5 57.5t-7 67.5v526h10v-526q0 -33 6.5 -64t21.5 -54t40.5 -37t63.5 -14q37 0 62.5 14t40.5 37t21.5 54t6.5 64v526h10v-526z" />
    <glyph glyph-name="uogonek" unicode="&#x173;" horiz-adv-x="363" 
d="M323 174q0 -30 -5 -58.5t-17 -52t-31 -40t-47 -23.5q-9 -7 -18 -18t-16.5 -23.5t-12 -25.5t-3.5 -25q2 -18 13.5 -26t28.5 -8q13 0 26 4t22 12v-12q-22 -14 -49 -14q-20 1 -34.5 11t-16.5 33t12 47.5t31 41.5q-6 -1 -12 -1.5t-12 -0.5q-40 0 -67.5 14.5t-44 39.5
t-23.5 57.5t-7 67.5v526h10v-526q0 -33 6.5 -64t21.5 -54t40.5 -37t63.5 -14q37 0 62.5 14t40.5 37t21.5 54t6.5 64v526h10v-526z" />
    <glyph glyph-name="Wcircumflex" unicode="&#x174;" horiz-adv-x="626" 
d="M246 747h-14l81 78h7l82 -78h-15l-70 68zM188 0h-15l-133 700h10l131 -686l130 682h16l122 -677l127 681h10l-131 -700h-13l-123 686z" />
    <glyph glyph-name="wcircumflex" unicode="&#x175;" horiz-adv-x="626" 
d="M246 747h-14l81 78h7l82 -78h-15l-70 68zM188 0h-15l-133 700h10l131 -686l130 682h16l122 -677l127 681h10l-131 -700h-13l-123 686z" />
    <glyph glyph-name="Ycircumflex" unicode="&#x176;" horiz-adv-x="426" 
d="M142 746h-14l81 78h7l82 -78h-15l-70 68zM207 290l-167 410h10l162 -396l163 396h11l-169 -410v-290h-10v290z" />
    <glyph glyph-name="ycircumflex" unicode="&#x177;" horiz-adv-x="426" 
d="M142 746h-14l81 78h7l82 -78h-15l-70 68zM207 290l-167 410h10l162 -396l163 396h11l-169 -410v-290h-10v290z" />
    <glyph glyph-name="Ydieresis" unicode="&#x178;" horiz-adv-x="426" 
d="M184 821v-78h-10v78h10zM250 821v-78h-10v78h10zM207 290l-167 410h10l162 -396l163 396h11l-169 -410v-290h-10v290z" />
    <glyph glyph-name="Zacute" unicode="&#x179;" horiz-adv-x="398" 
d="M282 838l-74 -86h-13l73 86h14zM352 0h-312v11l306 679h-291v10h302v-12l-306 -678h301v-10z" />
    <glyph glyph-name="zacute" unicode="&#x17a;" horiz-adv-x="398" 
d="M282 838l-74 -86h-13l73 86h14zM352 0h-312v11l306 679h-291v10h302v-12l-306 -678h301v-10z" />
    <glyph glyph-name="Zdotaccent" unicode="&#x17b;" horiz-adv-x="398" 
d="M224 829v-78h-10v78h10zM352 0h-312v11l306 679h-291v10h302v-12l-306 -678h301v-10z" />
    <glyph glyph-name="zdotaccent" unicode="&#x17c;" horiz-adv-x="398" 
d="M224 829v-78h-10v78h10zM352 0h-312v11l306 679h-291v10h302v-12l-306 -678h301v-10z" />
    <glyph glyph-name="Zcaron" unicode="&#x17d;" horiz-adv-x="398" 
d="M138 828l71 -68l70 68h15l-82 -78h-7l-81 78h14zM352 0h-312v11l306 679h-291v10h302v-12l-306 -678h301v-10z" />
    <glyph glyph-name="zcaron" unicode="&#x17e;" horiz-adv-x="398" 
d="M138 828l71 -68l70 68h15l-82 -78h-7l-81 78h14zM352 0h-312v11l306 679h-291v10h302v-12l-306 -678h301v-10z" />
    <glyph glyph-name="AEacute" unicode="&#x1fc;" horiz-adv-x="594" 
d="M414 835l-74 -86h-13l73 86h14zM521 360v-10h-180v-340h213v-10h-223v174h-210l-71 -174h-10l284 700h230v-10h-213v-330h180zM125 184h206v506z" />
    <glyph glyph-name="aeacute" unicode="&#x1fd;" horiz-adv-x="594" 
d="M414 835l-74 -86h-13l73 86h14zM521 360v-10h-180v-340h213v-10h-223v174h-210l-71 -174h-10l284 700h230v-10h-213v-330h180zM125 184h206v506z" />
    <glyph glyph-name="Oslashacute" unicode="&#x1fe;" horiz-adv-x="373" 
d="M242 838h14l-74 -86h-13zM306 642q14 -23 20.5 -52.5t6.5 -61.5v-356q0 -36 -8 -68t-25.5 -56.5t-45.5 -38.5t-68 -14q-41 0 -69 14.5t-45 39.5l-19 -49h-10l23 58q-14 23 -20 52.5t-6 61.5v356q0 36 8 68t25.5 56.5t45 38.5t67.5 14q41 0 68.5 -14.5t45.5 -38.5l19 48
h10zM186 695q-38 0 -64 -13.5t-42 -36.5t-23 -53t-7 -64v-356q0 -29 4.5 -54.5t15.5 -47.5l225 570q-16 26 -42.5 40.5t-66.5 14.5zM76 59q16 -25 42.5 -39.5t67.5 -14.5q38 0 64 13.5t42.5 36t23.5 53t7 64.5v356q0 29 -5.5 55t-16.5 47z" />
    <glyph glyph-name="oslashacute" unicode="&#x1ff;" horiz-adv-x="373" 
d="M242 838h14l-74 -86h-13zM306 642q14 -23 20.5 -52.5t6.5 -61.5v-356q0 -36 -8 -68t-25.5 -56.5t-45.5 -38.5t-68 -14q-41 0 -69 14.5t-45 39.5l-19 -49h-10l23 58q-14 23 -20 52.5t-6 61.5v356q0 36 8 68t25.5 56.5t45 38.5t67.5 14q41 0 68.5 -14.5t45.5 -38.5l19 48
h10zM186 695q-38 0 -64 -13.5t-42 -36.5t-23 -53t-7 -64v-356q0 -29 4.5 -54.5t15.5 -47.5l225 570q-16 26 -42.5 40.5t-66.5 14.5zM76 59q16 -25 42.5 -39.5t67.5 -14.5q38 0 64 13.5t42.5 36t23.5 53t7 64.5v356q0 29 -5.5 55t-16.5 47z" />
    <glyph glyph-name="uni0218" unicode="&#x218;" 
d="M185 705q39 0 66.5 -14t44 -38t24 -55.5t7.5 -66.5v-12h-10v12q0 33 -6.5 62.5t-22 52t-41 36t-62.5 13.5t-62.5 -13t-41 -35.5t-22 -52t-6.5 -62.5q0 -46 20.5 -77.5t51 -56t66 -46t66 -46.5t51 -57.5t20.5 -79.5q0 -36 -7.5 -67.5t-24.5 -55t-44.5 -37.5t-67.5 -14
t-67.5 14t-44.5 37.5t-24.5 55t-7.5 67.5v33h10v-33q0 -34 7 -63.5t22.5 -52t41 -35.5t63.5 -13q37 0 63 13t41.5 35.5t22.5 52t7 63.5q0 45 -20.5 76.5t-51 55.5t-66 45.5t-66 46.5t-51 58t-20.5 81q0 76 33 124t109 49zM180 -112h-1v78h10v-78l-18 -62h-7z" />
    <glyph glyph-name="uni0219" unicode="&#x219;" 
d="M185 705q39 0 66.5 -14t44 -38t24 -55.5t7.5 -66.5v-12h-10v12q0 33 -6.5 62.5t-22 52t-41 36t-62.5 13.5t-62.5 -13t-41 -35.5t-22 -52t-6.5 -62.5q0 -46 20.5 -77.5t51 -56t66 -46t66 -46.5t51 -57.5t20.5 -79.5q0 -36 -7.5 -67.5t-24.5 -55t-44.5 -37.5t-67.5 -14
t-67.5 14t-44.5 37.5t-24.5 55t-7.5 67.5v33h10v-33q0 -34 7 -63.5t22.5 -52t41 -35.5t63.5 -13q37 0 63 13t41.5 35.5t22.5 52t7 63.5q0 45 -20.5 76.5t-51 55.5t-66 45.5t-66 46.5t-51 58t-20.5 81q0 76 33 124t109 49zM180 -112h-1v78h10v-78l-18 -62h-7z" />
    <glyph glyph-name="uni021A" unicode="&#x21a;" horiz-adv-x="406" 
d="M198 0v690h-158v10h326v-10h-158v-690h-10zM199 -112h-1v78h10v-78l-18 -62h-7z" />
    <glyph glyph-name="uni021B" unicode="&#x21b;" horiz-adv-x="406" 
d="M198 0v690h-158v10h326v-10h-158v-690h-10zM199 -112h-1v78h10v-78l-18 -62h-7z" />
    <glyph glyph-name="uni0237" unicode="&#x237;" horiz-adv-x="252" 
d="M40 10q11 -1 21.5 -0.5t20.5 1.5q63 6 91.5 43.5t28.5 116.5v529h10v-529q0 -85 -32.5 -125t-97.5 -45q-10 -1 -20.5 -1.5t-21.5 0.5v10z" />
    <glyph glyph-name="uni02BC" unicode="&#x2bc;" horiz-adv-x="105" 
d="M47 560h-7l16 62h-1v78h10v-78z" />
    <glyph glyph-name="circumflex" unicode="&#x2c6;" horiz-adv-x="250" 
d="M54 770h-14l81 78h7l82 -78h-15l-70 68z" />
    <glyph glyph-name="caron" unicode="&#x2c7;" horiz-adv-x="250" 
d="M54 848l71 -68l70 68h15l-82 -78h-7l-81 78h14z" />
    <glyph glyph-name="breve" unicode="&#x2d8;" horiz-adv-x="257" 
d="M217 806q-2 -35 -28.5 -54t-60.5 -19q-33 0 -60 18.5t-28 54.5h10q1 -32 25 -47.5t53 -15.5t53 15.5t26 47.5h10z" />
    <glyph glyph-name="dotaccent" unicode="&#x2d9;" horiz-adv-x="90" 
d="M50 833v-78h-10v78h10z" />
    <glyph glyph-name="ring" unicode="&#x2da;" horiz-adv-x="200" 
d="M100 872q25 0 42.5 -16.5t17.5 -41.5q0 -26 -17.5 -42.5t-42.5 -16.5t-42.5 16.5t-17.5 42.5q0 25 17.5 41.5t42.5 16.5zM100 862q-21 0 -35.5 -13.5t-14.5 -34.5q0 -22 14.5 -35.5t35.5 -13.5q20 0 35 13.5t15 35.5q0 21 -15 34.5t-35 13.5z" />
    <glyph glyph-name="ogonek" unicode="&#x2db;" horiz-adv-x="180" 
d="M100 0q-9 -7 -18 -18t-16.5 -23.5t-12 -25.5t-3.5 -25q2 -18 13.5 -26t28.5 -8q13 0 26 4t22 12v-12q-22 -14 -49 -14q-20 1 -34.5 11t-16.5 33q-1 12 3 25t11 25t15.5 23t16.5 19h14z" />
    <glyph glyph-name="tilde" unicode="&#x2dc;" horiz-adv-x="268" 
d="M228 795q-7 -13 -17 -24t-26 -12q-13 -1 -24.5 5t-23 13.5t-23.5 13.5t-24 6q-14 0 -24 -9.5t-17 -21.5l-9 5q8 14 20.5 24.5t29.5 11.5q13 0 25.5 -6t24 -13.5t23 -13.5t22.5 -5q12 1 20.5 11t13.5 20z" />
    <glyph glyph-name="hungarumlaut" unicode="&#x2dd;" horiz-adv-x="226" 
d="M127 848l-74 -86h-13l73 86h14zM186 848l-74 -86h-13l73 86h14z" />
    <glyph glyph-name="uni0401" unicode="&#x401;" horiz-adv-x="342" 
d="M144 828v-78h-10v78h10zM210 828v-78h-10v78h10zM263 360v-10h-213v-340h252v-10h-262v700h262v-10h-252v-330h213z" />
    <glyph glyph-name="uni0410" unicode="&#x410;" horiz-adv-x="452" 
d="M93 170l-43 -170h-10l177 701h14l181 -701h-10l-44 170h-265zM96 180h259l-131 508z" />
    <glyph glyph-name="uni0411" unicode="&#x411;" horiz-adv-x="371" 
d="M170 391q80 0 120.5 -31t40.5 -115v-82q0 -77 -34 -120t-115 -43h-142v700h268v-10h-258v-299h120zM182 10q77 0 108 40.5t31 112.5v82q0 40 -9.5 66.5t-28 42t-47 21.5t-66.5 6h-120v-371h132z" />
    <glyph glyph-name="uni0412" unicode="&#x412;" horiz-adv-x="362" 
d="M177 700q75 0 103 -37t28 -106v-48q0 -59 -21 -94t-83 -42q65 -8 91.5 -48t26.5 -102v-63q0 -74 -33 -117t-112 -43h-137v700h137zM147 378q39 0 67.5 5.5t47 19.5t27.5 39.5t9 66.5v48q0 33 -5.5 57.5t-19.5 41.5t-37.5 25.5t-58.5 8.5h-127v-312h97zM177 10
q74 0 104.5 40t30.5 110v63q0 80 -38.5 112.5t-115.5 32.5h-108v-358h127z" />
    <glyph glyph-name="uni0413" unicode="&#x413;" horiz-adv-x="336" 
d="M50 690v-690h-10v700h256v-10h-246z" />
    <glyph glyph-name="uni0414" unicode="&#x414;" horiz-adv-x="490" 
d="M440 -99v99h-390v-99h-10v109h51q25 25 30.5 57t7.5 67l30 566h227v-690h64v-109h-10zM139 133q-2 -34 -6.5 -65.5t-27.5 -57.5h271v680h-207z" />
    <glyph glyph-name="uni0415" unicode="&#x415;" horiz-adv-x="342" 
d="M263 360v-10h-213v-340h252v-10h-262v700h262v-10h-252v-330h213z" />
    <glyph glyph-name="uni0416" unicode="&#x416;" horiz-adv-x="633" 
d="M379 372l-58 -94v-278h-10v279l-57 93l-203 -372h-11l208 381l-196 319h11l248 -404v404h10v-404l248 404h12l-196 -319l208 -381h-11z" />
    <glyph glyph-name="uni0417" unicode="&#x417;" 
d="M184 705q40 0 67.5 -14.5t44.5 -38.5t24.5 -56t7.5 -68v-18q0 -50 -28 -90.5t-78 -54.5q53 -11 79.5 -49.5t26.5 -89.5v-54q0 -36 -7.5 -68t-24.5 -56t-44.5 -38.5t-67.5 -14.5t-67.5 14.5t-44.5 38.5t-24.5 56t-7.5 68v48h10v-48q0 -33 6.5 -63.5t22.5 -53.5t41.5 -36.5
t63.5 -13.5t63.5 13.5t41.5 36.5t22.5 53.5t6.5 63.5v54q0 28 -9 52.5t-25.5 42.5t-40.5 28.5t-53 10.5h-47v10h47q28 0 51.5 12t40.5 31.5t26.5 44.5t9.5 52v18q0 34 -6.5 64t-22.5 53t-41.5 36.5t-63.5 13.5t-63.5 -13.5t-41.5 -36.5t-22.5 -53t-6.5 -64v-27h-10v27
q0 36 7.5 68t24.5 56t44.5 38.5t67.5 14.5z" />
    <glyph glyph-name="uni0418" unicode="&#x418;" horiz-adv-x="371" 
d="M183 333l-128 -333h-15v700h10v-687l138 360l126 327h17v-700h-10v690z" />
    <glyph glyph-name="uni0419" unicode="&#x419;" horiz-adv-x="371" 
d="M285 819q-2 -34 -29.5 -52t-62.5 -18t-63 17.5t-29 52.5h11q1 -31 25.5 -46t55.5 -15q30 0 54.5 15t26.5 46h11zM55 0h-15v700h10v-687l264 687h17v-700h-10v690z" />
    <glyph glyph-name="uni041A" unicode="&#x41a;" horiz-adv-x="399" 
d="M106 357l-56 -82v-275h-10v700h10v-407l276 407h12l-226 -334l247 -366h-12z" />
    <glyph glyph-name="uni041B" unicode="&#x41b;" horiz-adv-x="432" 
d="M169 690l-22 -522q-2 -29 -4 -58.5t-11.5 -53.5t-29.5 -40t-57 -17h-5v10q36 0 55.5 15t28.5 38t10.5 51.5t2.5 55.5l22 531h233v-700h-10v690h-213z" />
    <glyph glyph-name="uni041C" unicode="&#x41c;" horiz-adv-x="485" 
d="M249 2h-14l-185 688v-690h-10v700h18l184 -687l186 687h17v-700h-10v690z" />
    <glyph glyph-name="uni041D" unicode="&#x41d;" horiz-adv-x="370" 
d="M50 345v-345h-10v700h10v-345h270v345h10v-700h-10v345h-270z" />
    <glyph glyph-name="uni041E" unicode="&#x41e;" horiz-adv-x="373" 
d="M40 528q0 36 8 68t25.5 56.5t45 38.5t67.5 14t68 -14t45.5 -38.5t25.5 -56.5t8 -68v-356q0 -36 -8 -68t-25.5 -56.5t-45.5 -38.5t-68 -14t-67.5 14t-45 38.5t-25.5 56.5t-8 68v356zM50 172q0 -34 7 -64.5t23 -53t42 -36t64 -13.5t64 13.5t42.5 36t23.5 53t7 64.5v356
q0 34 -7 64t-23.5 53t-42.5 36.5t-64 13.5t-64 -13.5t-42 -36.5t-23 -53t-7 -64v-356z" />
    <glyph glyph-name="uni041F" unicode="&#x41f;" horiz-adv-x="370" 
d="M50 690v-690h-10v700h290v-700h-10v690h-270z" />
    <glyph glyph-name="uni0420" unicode="&#x420;" horiz-adv-x="357" 
d="M175 700q40 0 67.5 -13t44 -35.5t23.5 -53t7 -66.5v-68q0 -83 -38 -122.5t-123 -39.5h-106v-302h-10v700h135zM156 312q81 0 116 36.5t35 115.5v68q0 34 -6.5 63t-21.5 50t-40.5 33t-63.5 12h-125v-378h106z" />
    <glyph glyph-name="uni0421" unicode="&#x421;" 
d="M184 705q40 0 67.5 -14.5t44.5 -39t24.5 -56.5t7.5 -67v-53h-10v53q0 33 -7 63.5t-22.5 53.5t-41.5 36.5t-63 13.5q-38 0 -63.5 -13.5t-41 -36.5t-22.5 -53.5t-7 -63.5v-356q0 -33 7 -63.5t22.5 -53.5t41 -36.5t63.5 -13.5q37 0 63 13.5t41.5 36.5t22.5 53.5t7 63.5v74
h10v-74q0 -35 -7.5 -67t-24.5 -56.5t-44.5 -39t-67.5 -14.5t-67.5 14.5t-44.5 39t-24.5 56.5t-7.5 67v356q0 35 7.5 67t24.5 56.5t44.5 39t67.5 14.5z" />
    <glyph glyph-name="uni0422" unicode="&#x422;" horiz-adv-x="406" 
d="M198 0v690h-158v10h326v-10h-158v-690h-10z" />
    <glyph glyph-name="uni0423" unicode="&#x423;" horiz-adv-x="436" 
d="M180 103q-8 -23 -17 -42t-22 -32.5t-31.5 -21t-45.5 -7.5v10q25 0 42 7t29 19.5t20 30.5t16 39l46 129l-177 465h11l95 -251l76 -200l163 451h11z" />
    <glyph glyph-name="uni0424" unicode="&#x424;" horiz-adv-x="541" 
d="M341 621q44 0 74.5 -12.5t49.5 -35.5t27.5 -56t8.5 -74v-191q0 -41 -8.5 -74t-27.5 -56t-49.5 -35.5t-74.5 -12.5h-66v-74h-10v74h-66q-44 0 -74.5 12.5t-49 35.5t-27 56t-8.5 74v191q0 41 8.5 74t27 56t49 35.5t74.5 12.5h66v79h10v-79h66zM199 611q-83 0 -116 -45
t-33 -123v-191q0 -78 33 -123t116 -45h66v527h-66zM341 84q83 0 116.5 45t33.5 123v191q0 78 -33 123t-117 45h-66v-527h66z" />
    <glyph glyph-name="uni0425" unicode="&#x425;" horiz-adv-x="446" 
d="M223 353l-171 -353h-12l178 364l-166 336h11l160 -325l160 325h11l-165 -336l177 -364h-11z" />
    <glyph glyph-name="uni0426" unicode="&#x426;" horiz-adv-x="455" 
d="M403 -94v94h-343v700h9v-690h270v690h10v-690h64v-104h-10z" />
    <glyph glyph-name="uni0427" unicode="&#x427;" horiz-adv-x="372" 
d="M322 367q-20 -42 -54.5 -64.5t-85.5 -22.5q-39 0 -66 14.5t-44 39.5t-24.5 56.5t-7.5 66.5v243h10v-243q0 -32 7 -62.5t22.5 -53.5t41 -37t61.5 -14q54 0 88 26t52 75v309h10v-700h-10v367z" />
    <glyph glyph-name="uni0428" unicode="&#x428;" horiz-adv-x="543" 
d="M50 700v-690h217v690h10v-690h216v690h10v-700h-463v700h10z" />
    <glyph glyph-name="uni0429" unicode="&#x429;" horiz-adv-x="607" 
d="M557 -94v94h-517v700h10v-690h216v690h10v-690h217l-1 690h10v-690h65v-104h-10z" />
    <glyph glyph-name="uni042A" unicode="&#x42a;" horiz-adv-x="461" 
d="M260 398q85 0 123 -39.5t38 -122.5v-68q0 -36 -7 -67t-23.5 -53.5t-44 -35t-67.5 -12.5h-135v690h-104v10h114v-302h106zM279 10q38 0 63.5 12t40.5 33t21.5 50t6.5 63v68q0 79 -35.5 115.5t-115.5 36.5h-106v-378h125z" />
    <glyph glyph-name="uni042B" unicode="&#x42b;" horiz-adv-x="435" 
d="M155 398q85 0 123.5 -39.5t38.5 -122.5v-68q0 -36 -7 -67t-24 -53.5t-44.5 -35t-67.5 -12.5h-134v700h10v-302h105zM395 700v-700h-10v700h10zM174 10q38 0 63.5 12t41 33t22 50t6.5 63v68q0 79 -35.5 115.5t-116.5 36.5h-105v-378h124z" />
    <glyph glyph-name="uni042C" unicode="&#x42c;" horiz-adv-x="357" 
d="M155 398q85 0 123.5 -39.5t38.5 -122.5v-68q0 -36 -7 -67t-24 -53.5t-44.5 -35t-67.5 -12.5h-134v700h10v-302h105zM174 10q38 0 63.5 12t41 33t22 50t6.5 63v68q0 79 -35.5 115.5t-116.5 36.5h-105v-378h124z" />
    <glyph glyph-name="uni042D" unicode="&#x42d;" horiz-adv-x="367" 
d="M183 705q40 0 67.5 -14.5t44.5 -39t24.5 -56.5t7.5 -67v-356q0 -35 -7.5 -67t-24.5 -56.5t-44.5 -39t-67.5 -14.5q-39 0 -66.5 14.5t-44.5 39t-24.5 56.5t-7.5 67v61h10v-61q0 -33 6.5 -63.5t22.5 -53.5t41 -36.5t63 -13.5t63.5 13.5t41.5 36.5t22.5 53.5t6.5 63.5v185
h-166v10h166v161q0 33 -6.5 63.5t-22.5 53.5t-41.5 36.5t-63.5 13.5t-63 -13.5t-41 -36.5t-22.5 -53.5t-6.5 -63.5v-37h-10v37q0 35 7.5 67t24.5 56.5t44.5 39t66.5 14.5z" />
    <glyph glyph-name="uni042E" unicode="&#x42e;" horiz-adv-x="526" 
d="M339 705q40 0 68 -14t45.5 -38.5t25.5 -56.5t8 -68v-356q0 -36 -8 -68t-25.5 -56.5t-45.5 -38.5t-68 -14t-68 14t-45 38.5t-25 56.5t-8 68v173h-143v-345h-10v700h10v-345h143v173q0 36 8 68t25 56.5t45 38.5t68 14zM339 695q-38 0 -64 -13.5t-42 -36t-23 -53t-7 -64.5
v-356q0 -34 7 -64t23 -53t42 -36.5t64 -13.5t64 13.5t42.5 36.5t23.5 53t7 64v356q0 34 -7 64.5t-23.5 53t-42.5 36t-64 13.5z" />
    <glyph glyph-name="uni042F" unicode="&#x42f;" horiz-adv-x="377" 
d="M235 328q-36 0 -66.5 -6t-52.5 -21t-34 -41.5t-12 -66.5v-110q0 -20 -3.5 -43t-14.5 -40h-12q13 16 16.5 39.5t3.5 43.5v110q0 59 28 95t89 44q-61 9 -89 45.5t-28 102.5v63q0 71 32.5 114t109.5 43h135v-700h-10v328h-92zM202 690q-73 0 -102.5 -39.5t-29.5 -107.5v-63
q0 -44 11 -71.5t32.5 -43t52 -21.5t69.5 -6h92v352h-125z" />
    <glyph glyph-name="uni0430" unicode="&#x430;" horiz-adv-x="452" 
d="M93 170l-43 -170h-10l177 701h14l181 -701h-10l-44 170h-265zM96 180h259l-131 508z" />
    <glyph glyph-name="uni0431" unicode="&#x431;" horiz-adv-x="371" 
d="M170 391q80 0 120.5 -31t40.5 -115v-82q0 -77 -34 -120t-115 -43h-142v700h268v-10h-258v-299h120zM182 10q77 0 108 40.5t31 112.5v82q0 40 -9.5 66.5t-28 42t-47 21.5t-66.5 6h-120v-371h132z" />
    <glyph glyph-name="uni0432" unicode="&#x432;" horiz-adv-x="362" 
d="M177 700q75 0 103 -37t28 -106v-48q0 -59 -21 -94t-83 -42q65 -8 91.5 -48t26.5 -102v-63q0 -74 -33 -117t-112 -43h-137v700h137zM147 378q39 0 67.5 5.5t47 19.5t27.5 39.5t9 66.5v48q0 33 -5.5 57.5t-19.5 41.5t-37.5 25.5t-58.5 8.5h-127v-312h97zM177 10
q74 0 104.5 40t30.5 110v63q0 80 -38.5 112.5t-115.5 32.5h-108v-358h127z" />
    <glyph glyph-name="uni0433" unicode="&#x433;" horiz-adv-x="336" 
d="M50 690v-690h-10v700h256v-10h-246z" />
    <glyph glyph-name="uni0434" unicode="&#x434;" horiz-adv-x="490" 
d="M440 -99v99h-390v-99h-10v109h51q25 25 30.5 57t7.5 67l30 566h227v-690h64v-109h-10zM139 133q-2 -34 -6.5 -65.5t-27.5 -57.5h271v680h-207z" />
    <glyph glyph-name="uni0435" unicode="&#x435;" horiz-adv-x="342" 
d="M263 360v-10h-213v-340h252v-10h-262v700h262v-10h-252v-330h213z" />
    <glyph glyph-name="uni0436" unicode="&#x436;" horiz-adv-x="633" 
d="M379 372l-58 -94v-278h-10v279l-57 93l-203 -372h-11l208 381l-196 319h11l248 -404v404h10v-404l248 404h12l-196 -319l208 -381h-11z" />
    <glyph glyph-name="uni0437" unicode="&#x437;" 
d="M184 705q40 0 67.5 -14.5t44.5 -38.5t24.5 -56t7.5 -68v-18q0 -50 -28 -90.5t-78 -54.5q53 -11 79.5 -49.5t26.5 -89.5v-54q0 -36 -7.5 -68t-24.5 -56t-44.5 -38.5t-67.5 -14.5t-67.5 14.5t-44.5 38.5t-24.5 56t-7.5 68v48h10v-48q0 -33 6.5 -63.5t22.5 -53.5t41.5 -36.5
t63.5 -13.5t63.5 13.5t41.5 36.5t22.5 53.5t6.5 63.5v54q0 28 -9 52.5t-25.5 42.5t-40.5 28.5t-53 10.5h-47v10h47q28 0 51.5 12t40.5 31.5t26.5 44.5t9.5 52v18q0 34 -6.5 64t-22.5 53t-41.5 36.5t-63.5 13.5t-63.5 -13.5t-41.5 -36.5t-22.5 -53t-6.5 -64v-27h-10v27
q0 36 7.5 68t24.5 56t44.5 38.5t67.5 14.5z" />
    <glyph glyph-name="uni0438" unicode="&#x438;" horiz-adv-x="371" 
d="M55 0h-15v700h10v-687l105 274l159 413h17v-700h-10v690z" />
    <glyph glyph-name="uni0439" unicode="&#x439;" horiz-adv-x="371" 
d="M285 815q-2 -34 -29.5 -52t-62.5 -18t-63 17.5t-29 52.5h11q1 -31 25.5 -46t55.5 -15q30 0 54.5 15t26.5 46h11zM198 370l-143 -370h-15v700h10v-687l116 303l148 384h17v-700h-10v690z" />
    <glyph glyph-name="uni043A" unicode="&#x43a;" horiz-adv-x="399" 
d="M106 357l-56 -82v-275h-10v700h10v-407l276 407h12l-226 -334l247 -366h-12z" />
    <glyph glyph-name="uni043B" unicode="&#x43b;" horiz-adv-x="432" 
d="M169 690l-22 -522q-2 -29 -4 -58.5t-11.5 -53.5t-29.5 -40t-57 -17h-5v10q36 0 55.5 15t28.5 38t10.5 51.5t2.5 55.5l22 531h233v-700h-10v690h-213z" />
    <glyph glyph-name="uni043C" unicode="&#x43c;" horiz-adv-x="485" 
d="M249 2h-14l-185 688v-690h-10v700h18l184 -687l186 687h17v-700h-10v690z" />
    <glyph glyph-name="uni043D" unicode="&#x43d;" horiz-adv-x="370" 
d="M50 345v-345h-10v700h10v-345h270v345h10v-700h-10v345h-270z" />
    <glyph glyph-name="uni043E" unicode="&#x43e;" horiz-adv-x="373" 
d="M40 528q0 36 8 68t25.5 56.5t45 38.5t67.5 14t68 -14t45.5 -38.5t25.5 -56.5t8 -68v-356q0 -36 -8 -68t-25.5 -56.5t-45.5 -38.5t-68 -14t-67.5 14t-45 38.5t-25.5 56.5t-8 68v356zM50 172q0 -34 7 -64.5t23 -53t42 -36t64 -13.5t64 13.5t42.5 36t23.5 53t7 64.5v356
q0 34 -7 64t-23.5 53t-42.5 36.5t-64 13.5t-64 -13.5t-42 -36.5t-23 -53t-7 -64v-356z" />
    <glyph glyph-name="uni043F" unicode="&#x43f;" horiz-adv-x="370" 
d="M50 690v-690h-10v700h290v-700h-10v690h-270z" />
    <glyph glyph-name="uni0440" unicode="&#x440;" horiz-adv-x="357" 
d="M175 700q40 0 67.5 -13t44 -35.5t23.5 -53t7 -66.5v-68q0 -83 -38 -122.5t-123 -39.5h-106v-302h-10v700h135zM156 312q81 0 116 36.5t35 115.5v68q0 34 -6.5 63t-21.5 50t-40.5 33t-63.5 12h-125v-378h106z" />
    <glyph glyph-name="uni0441" unicode="&#x441;" 
d="M184 705q40 0 67.5 -14.5t44.5 -39t24.5 -56.5t7.5 -67v-53h-10v53q0 33 -7 63.5t-22.5 53.5t-41.5 36.5t-63 13.5q-38 0 -63.5 -13.5t-41 -36.5t-22.5 -53.5t-7 -63.5v-356q0 -33 7 -63.5t22.5 -53.5t41 -36.5t63.5 -13.5q37 0 63 13.5t41.5 36.5t22.5 53.5t7 63.5v74
h10v-74q0 -35 -7.5 -67t-24.5 -56.5t-44.5 -39t-67.5 -14.5t-67.5 14.5t-44.5 39t-24.5 56.5t-7.5 67v356q0 35 7.5 67t24.5 56.5t44.5 39t67.5 14.5z" />
    <glyph glyph-name="uni0442" unicode="&#x442;" horiz-adv-x="406" 
d="M198 0v690h-158v10h326v-10h-158v-690h-10z" />
    <glyph glyph-name="uni0443" unicode="&#x443;" horiz-adv-x="436" 
d="M180 103q-8 -23 -17 -42t-22 -32.5t-31.5 -21t-45.5 -7.5v10q25 0 42 7t29 19.5t20 30.5t16 39l46 129l-177 465h11l95 -251l76 -200l163 451h11z" />
    <glyph glyph-name="uni0444" unicode="&#x444;" horiz-adv-x="541" 
d="M341 621q44 0 74.5 -12.5t49.5 -35.5t27.5 -56t8.5 -74v-191q0 -41 -8.5 -74t-27.5 -56t-49.5 -35.5t-74.5 -12.5h-66v-74h-10v74h-66q-44 0 -74.5 12.5t-49 35.5t-27 56t-8.5 74v191q0 41 8.5 74t27 56t49 35.5t74.5 12.5h66v79h10v-79h66zM199 611q-83 0 -116 -45
t-33 -123v-191q0 -78 33 -123t116 -45h66v527h-66zM341 84q83 0 116.5 45t33.5 123v191q0 78 -33 123t-117 45h-66v-527h66z" />
    <glyph glyph-name="uni0445" unicode="&#x445;" horiz-adv-x="446" 
d="M223 353l-171 -353h-12l178 364l-166 336h11l160 -325l160 325h11l-165 -336l177 -364h-11z" />
    <glyph glyph-name="uni0446" unicode="&#x446;" horiz-adv-x="455" 
d="M403 -94v94h-343v700h9v-690h270v690h10v-690h64v-104h-10z" />
    <glyph glyph-name="uni0447" unicode="&#x447;" horiz-adv-x="372" 
d="M322 367q-20 -42 -54.5 -64.5t-85.5 -22.5q-39 0 -66 14.5t-44 39.5t-24.5 56.5t-7.5 66.5v243h10v-243q0 -32 7 -62.5t22.5 -53.5t41 -37t61.5 -14q54 0 88 26t52 75v309h10v-700h-10v367z" />
    <glyph glyph-name="uni0448" unicode="&#x448;" horiz-adv-x="543" 
d="M50 700v-690h217v690h10v-690h216v690h10v-700h-463v700h10z" />
    <glyph glyph-name="uni0449" unicode="&#x449;" horiz-adv-x="607" 
d="M557 -94v94h-517v700h10v-690h216v690h10v-690h217l-1 690h10v-690h65v-104h-10z" />
    <glyph glyph-name="uni044A" unicode="&#x44a;" horiz-adv-x="461" 
d="M260 398q85 0 123 -39.5t38 -122.5v-68q0 -36 -7 -67t-23.5 -53.5t-44 -35t-67.5 -12.5h-135v690h-104v10h114v-302h106zM279 10q38 0 63.5 12t40.5 33t21.5 50t6.5 63v68q0 79 -35.5 115.5t-115.5 36.5h-106v-378h125z" />
    <glyph glyph-name="uni044B" unicode="&#x44b;" horiz-adv-x="435" 
d="M155 398q85 0 123.5 -39.5t38.5 -122.5v-68q0 -36 -7 -67t-24 -53.5t-44.5 -35t-67.5 -12.5h-134v700h10v-302h105zM395 700v-700h-10v700h10zM174 10q38 0 63.5 12t41 33t22 50t6.5 63v68q0 79 -35.5 115.5t-116.5 36.5h-105v-378h124z" />
    <glyph glyph-name="uni044C" unicode="&#x44c;" horiz-adv-x="357" 
d="M155 398q85 0 123.5 -39.5t38.5 -122.5v-68q0 -36 -7 -67t-24 -53.5t-44.5 -35t-67.5 -12.5h-134v700h10v-302h105zM174 10q38 0 63.5 12t41 33t22 50t6.5 63v68q0 79 -35.5 115.5t-116.5 36.5h-105v-378h124z" />
    <glyph glyph-name="uni044D" unicode="&#x44d;" horiz-adv-x="367" 
d="M183 705q40 0 67.5 -14.5t44.5 -39t24.5 -56.5t7.5 -67v-356q0 -35 -7.5 -67t-24.5 -56.5t-44.5 -39t-67.5 -14.5q-39 0 -66.5 14.5t-44.5 39t-24.5 56.5t-7.5 67v61h10v-61q0 -33 6.5 -63.5t22.5 -53.5t41 -36.5t63 -13.5t63.5 13.5t41.5 36.5t22.5 53.5t6.5 63.5v185
h-166v10h166v161q0 33 -6.5 63.5t-22.5 53.5t-41.5 36.5t-63.5 13.5t-63 -13.5t-41 -36.5t-22.5 -53.5t-6.5 -63.5v-37h-10v37q0 35 7.5 67t24.5 56.5t44.5 39t66.5 14.5z" />
    <glyph glyph-name="uni044E" unicode="&#x44e;" horiz-adv-x="526" 
d="M339 705q40 0 68 -14t45.5 -38.5t25.5 -56.5t8 -68v-356q0 -36 -8 -68t-25.5 -56.5t-45.5 -38.5t-68 -14t-68 14t-45 38.5t-25 56.5t-8 68v173h-143v-345h-10v700h10v-345h143v173q0 36 8 68t25 56.5t45 38.5t68 14zM339 695q-38 0 -64 -13.5t-42 -36t-23 -53t-7 -64.5
v-356q0 -34 7 -64t23 -53t42 -36.5t64 -13.5t64 13.5t42.5 36.5t23.5 53t7 64v356q0 34 -7 64.5t-23.5 53t-42.5 36t-64 13.5z" />
    <glyph glyph-name="uni044F" unicode="&#x44f;" horiz-adv-x="377" 
d="M235 328q-36 0 -66.5 -6t-52.5 -21t-34 -41.5t-12 -66.5v-110q0 -20 -3.5 -43t-14.5 -40h-12q13 16 16.5 39.5t3.5 43.5v110q0 59 28 95t89 44q-61 9 -89 45.5t-28 102.5v63q0 71 32.5 114t109.5 43h135v-700h-10v328h-92zM202 690q-73 0 -102.5 -39.5t-29.5 -107.5v-63
q0 -44 11 -71.5t32.5 -43t52 -21.5t69.5 -6h92v352h-125z" />
    <glyph glyph-name="uni0451" unicode="&#x451;" horiz-adv-x="342" 
d="M144 828v-78h-10v78h10zM210 828v-78h-10v78h10zM263 360v-10h-213v-340h252v-10h-262v700h262v-10h-252v-330h213z" />
    <glyph glyph-name="uni1E02" unicode="&#x1e02;" horiz-adv-x="362" 
d="M166 823v-78h-10v78h10zM177 700q75 0 103 -37t28 -106v-48q0 -59 -21 -94t-83 -42q65 -8 91.5 -48t26.5 -102v-63q0 -74 -33 -117t-112 -43h-137v700h137zM147 378q39 0 67.5 5.5t47 19.5t27.5 39.5t9 66.5v48q0 33 -5.5 57.5t-19.5 41.5t-37.5 25.5t-58.5 8.5h-127
v-312h97zM177 10q74 0 104.5 40t30.5 110v63q0 80 -38.5 112.5t-115.5 32.5h-108v-358h127z" />
    <glyph glyph-name="uni1E03" unicode="&#x1e03;" horiz-adv-x="362" 
d="M166 823v-78h-10v78h10zM177 700q75 0 103 -37t28 -106v-48q0 -59 -21 -94t-83 -42q65 -8 91.5 -48t26.5 -102v-63q0 -74 -33 -117t-112 -43h-137v700h137zM147 378q39 0 67.5 5.5t47 19.5t27.5 39.5t9 66.5v48q0 33 -5.5 57.5t-19.5 41.5t-37.5 25.5t-58.5 8.5h-127
v-312h97zM177 10q74 0 104.5 40t30.5 110v63q0 80 -38.5 112.5t-115.5 32.5h-108v-358h127z" />
    <glyph glyph-name="uni1E0A" unicode="&#x1e0a;" horiz-adv-x="372" 
d="M171 823v-78h-10v78h10zM182 700q40 0 68.5 -13.5t46.5 -37t26.5 -55.5t8.5 -69v-351q0 -36 -8.5 -68t-26.5 -55.5t-46 -37t-68 -13.5h-143v700h142zM183 10q38 0 64.5 12.5t43 35t24 52t7.5 64.5v351q0 35 -7.5 65t-24.5 52.5t-43.5 35t-64.5 12.5h-132v-680h133z" />
    <glyph glyph-name="uni1E0B" unicode="&#x1e0b;" horiz-adv-x="372" 
d="M171 823v-78h-10v78h10zM182 700q40 0 68.5 -13.5t46.5 -37t26.5 -55.5t8.5 -69v-351q0 -36 -8.5 -68t-26.5 -55.5t-46 -37t-68 -13.5h-143v700h142zM183 10q38 0 64.5 12.5t43 35t24 52t7.5 64.5v351q0 35 -7.5 65t-24.5 52.5t-43.5 35t-64.5 12.5h-132v-680h133z" />
    <glyph glyph-name="uni1E1E" unicode="&#x1e1e;" horiz-adv-x="332" 
d="M171 822v-78h-10v78h10zM253 342v-10h-203v-332h-10v700h252v-10h-242v-348h203z" />
    <glyph glyph-name="uni1E1F" unicode="&#x1e1f;" horiz-adv-x="332" 
d="M181 823v-78h-10v78h10zM253 342v-10h-203v-332h-10v700h252v-10h-242v-348h203z" />
    <glyph glyph-name="uni1E40" unicode="&#x1e40;" horiz-adv-x="485" 
d="M247 830v-81h-10v81h10zM249 2h-14l-185 688v-690h-10v700h18l184 -687l186 687h17v-700h-10v690z" />
    <glyph glyph-name="uni1E41" unicode="&#x1e41;" horiz-adv-x="485" 
d="M247 831v-78h-10v78h10zM249 2h-14l-185 688v-690h-10v700h18l184 -687l186 687h17v-700h-10v690z" />
    <glyph glyph-name="uni1E56" unicode="&#x1e56;" horiz-adv-x="357" 
d="M165 823v-78h-10v78h10zM175 700q40 0 67.5 -13t44 -35.5t23.5 -53t7 -66.5v-68q0 -83 -38 -122.5t-123 -39.5h-106v-302h-10v700h135zM156 312q81 0 116 36.5t35 115.5v68q0 34 -6.5 63t-21.5 50t-40.5 33t-63.5 12h-125v-378h106z" />
    <glyph glyph-name="uni1E57" unicode="&#x1e57;" horiz-adv-x="357" 
d="M173 823v-78h-10v78h10zM175 700q40 0 67.5 -13t44 -35.5t23.5 -53t7 -66.5v-68q0 -83 -38 -122.5t-123 -39.5h-106v-302h-10v700h135zM156 312q81 0 116 36.5t35 115.5v68q0 34 -6.5 63t-21.5 50t-40.5 33t-63.5 12h-125v-378h106z" />
    <glyph glyph-name="uni1E60" unicode="&#x1e60;" 
d="M189 824v-78h-10v78h10zM185 705q39 0 66.5 -14t44 -38t24 -55.5t7.5 -66.5v-12h-10v12q0 33 -6.5 62.5t-22 52t-41 36t-62.5 13.5t-62.5 -13t-41 -35.5t-22 -52t-6.5 -62.5q0 -46 20.5 -77.5t51 -56t66 -46t66 -46.5t51 -57.5t20.5 -79.5q0 -36 -7.5 -67.5t-24.5 -55
t-44.5 -37.5t-67.5 -14t-67.5 14t-44.5 37.5t-24.5 55t-7.5 67.5v33h10v-33q0 -34 7 -63.5t22.5 -52t41 -35.5t63.5 -13q37 0 63 13t41.5 35.5t22.5 52t7 63.5q0 45 -20.5 76.5t-51 55.5t-66 45.5t-66 46.5t-51 58t-20.5 81q0 76 33 124t109 49z" />
    <glyph glyph-name="uni1E61" unicode="&#x1e61;" 
d="M198 833v-78h-10v78h10zM185 705q39 0 66.5 -14t44 -38t24 -55.5t7.5 -66.5v-12h-10v12q0 33 -6.5 62.5t-22 52t-41 36t-62.5 13.5t-62.5 -13t-41 -35.5t-22 -52t-6.5 -62.5q0 -46 20.5 -77.5t51 -56t66 -46t66 -46.5t51 -57.5t20.5 -79.5q0 -36 -7.5 -67.5t-24.5 -55
t-44.5 -37.5t-67.5 -14t-67.5 14t-44.5 37.5t-24.5 55t-7.5 67.5v33h10v-33q0 -34 7 -63.5t22.5 -52t41 -35.5t63.5 -13q37 0 63 13t41.5 35.5t22.5 52t7 63.5q0 45 -20.5 76.5t-51 55.5t-66 45.5t-66 46.5t-51 58t-20.5 81q0 76 33 124t109 49z" />
    <glyph glyph-name="uni1E6A" unicode="&#x1e6a;" horiz-adv-x="406" 
d="M208 825v-78h-10v78h10zM198 0v690h-158v10h326v-10h-158v-690h-10z" />
    <glyph glyph-name="uni1E6B" unicode="&#x1e6b;" horiz-adv-x="406" 
d="M204 823v-78h-10v78h10zM194 0v690h-158v10h326v-10h-158v-690h-10z" />
    <glyph glyph-name="Wgrave" unicode="&#x1e80;" horiz-adv-x="626" 
d="M282 838l73 -86h-13l-74 86h14zM188 0h-15l-133 700h10l131 -686l130 682h16l122 -677l127 681h10l-131 -700h-13l-123 686z" />
    <glyph glyph-name="wgrave" unicode="&#x1e81;" horiz-adv-x="626" 
d="M282 838l73 -86h-13l-74 86h14zM188 0h-15l-133 700h10l131 -686l130 682h16l122 -677l127 681h10l-131 -700h-13l-123 686z" />
    <glyph glyph-name="Wacute" unicode="&#x1e82;" horiz-adv-x="626" 
d="M373 829l-74 -86h-13l73 86h14zM188 0h-15l-133 700h10l131 -686l130 682h16l122 -677l127 681h10l-131 -700h-13l-123 686z" />
    <glyph glyph-name="wacute" unicode="&#x1e83;" horiz-adv-x="626" 
d="M373 829l-74 -86h-13l73 86h14zM188 0h-15l-133 700h10l131 -686l130 682h16l122 -677l127 681h10l-131 -700h-13l-123 686z" />
    <glyph glyph-name="Wdieresis" unicode="&#x1e84;" horiz-adv-x="626" 
d="M291 828v-78h-10v78h10zM357 828v-78h-10v78h10zM188 0h-15l-133 700h10l131 -686l130 682h16l122 -677l127 681h10l-131 -700h-13l-123 686z" />
    <glyph glyph-name="wdieresis" unicode="&#x1e85;" horiz-adv-x="626" 
d="M291 828v-78h-10v78h10zM357 828v-78h-10v78h10zM188 0h-15l-133 700h10l131 -686l130 682h16l122 -677l127 681h10l-131 -700h-13l-123 686z" />
    <glyph glyph-name="Ygrave" unicode="&#x1ef2;" horiz-adv-x="426" 
d="M166 838l73 -86h-13l-74 86h14zM207 290l-167 410h10l162 -396l163 396h11l-169 -410v-290h-10v290z" />
    <glyph glyph-name="ygrave" unicode="&#x1ef3;" horiz-adv-x="426" 
d="M166 838l73 -86h-13l-74 86h14zM207 290l-167 410h10l162 -396l163 396h11l-169 -410v-290h-10v290z" />
    <glyph glyph-name="figuredash" unicode="&#x2012;" horiz-adv-x="485" 
d="M40 355h405v-9h-405v9z" />
    <glyph glyph-name="endash" unicode="&#x2013;" horiz-adv-x="371" 
d="M40 355h291v-9h-291v9z" />
    <glyph glyph-name="emdash" unicode="&#x2014;" horiz-adv-x="485" 
d="M40 355h405v-9h-405v9z" />
    <glyph glyph-name="quoteleft" unicode="&#x2018;" horiz-adv-x="105" 
d="M58 700h7l-16 -62h1v-78h-10v78z" />
    <glyph glyph-name="quoteright" unicode="&#x2019;" horiz-adv-x="105" 
d="M47 560h-7l16 62h-1v78h10v-78z" />
    <glyph glyph-name="quotesinglbase" unicode="&#x201a;" horiz-adv-x="105" 
d="M47 -62h-7l16 62h-1v78h10v-78z" />
    <glyph glyph-name="quotedblleft" unicode="&#x201c;" horiz-adv-x="145" 
d="M58 700h7l-16 -62h1v-78h-10v78zM98 700h7l-16 -62h1v-78h-10v78z" />
    <glyph glyph-name="quotedblright" unicode="&#x201d;" horiz-adv-x="145" 
d="M47 560h-7l16 62h-1v78h10v-78zM87 560h-7l16 62h-1v78h10v-78z" />
    <glyph glyph-name="quotedblbase" unicode="&#x201e;" horiz-adv-x="153" 
d="M47 -62h-7l16 62h-1v78h10v-78zM95 -62h-7l16 62h-1v78h10v-78z" />
    <glyph glyph-name="dagger" unicode="&#x2020;" horiz-adv-x="391" 
d="M201 488h150v-11h-150v-542h-11v542h-150v11h150v212h11v-212z" />
    <glyph glyph-name="daggerdbl" unicode="&#x2021;" horiz-adv-x="391" 
d="M201 488h150v-11h-150v-317h150v-11h-150v-214h-11v214h-150v11h150v317h-150v11h150v212h11v-212z" />
    <glyph glyph-name="bullet" unicode="&#x2022;" horiz-adv-x="188" 
d="M94 384q14 0 24 -10t10 -24t-10 -24t-24 -10t-24 10t-10 24t10 24t24 10z" />
    <glyph glyph-name="ellipsis" unicode="&#x2026;" horiz-adv-x="174" 
d="M50 78v-78h-10v78h10zM91 78v-78h-10v78h10zM134 78v-78h-10v78h10z" />
    <glyph glyph-name="perthousand" unicode="&#x2030;" horiz-adv-x="835" 
d="M128 701q25 0 42 -10t27 -26t14.5 -36.5t4.5 -42.5v-203q0 -22 -4.5 -42.5t-14.5 -36.5t-27 -25.5t-42 -9.5t-42 9.5t-27 25.5t-14.5 36.5t-4.5 42.5v203q0 22 4.5 42.5t14.5 36.5t27 26t42 10zM439 701l-276 -701h-11l276 701h11zM128 691q-23 0 -38 -9t-24 -24
t-12.5 -34t-3.5 -38v-203q0 -20 3.5 -38.5t12.5 -33t24 -23.5t38 -9t38 9t24 23.5t12.5 33t3.5 38.5v203q0 19 -3.5 38t-12.5 34t-24 24t-38 9zM465 428q25 0 42 -9.5t27.5 -25.5t14.5 -36.5t4 -42.5v-199q0 -22 -4 -42.5t-14.5 -36.5t-27.5 -26t-42 -10t-42 10t-27 26
t-14.5 36.5t-4.5 42.5v199q0 22 4.5 42.5t14.5 36.5t27 25.5t42 9.5zM707 428q25 0 42 -9.5t27.5 -25.5t14.5 -36.5t4 -42.5v-199q0 -22 -4 -42.5t-14.5 -36.5t-27.5 -26t-42 -10t-42 10t-27 26t-14.5 36.5t-4.5 42.5v199q0 22 4.5 42.5t14.5 36.5t27 25.5t42 9.5zM465 418
q-23 0 -38 -9t-24 -23.5t-12.5 -33.5t-3.5 -38v-199q0 -20 3.5 -38.5t12.5 -33.5t24 -24t38 -9t38 9t24 24t12.5 33.5t3.5 38.5v199q0 19 -3.5 38t-12.5 33.5t-24 23.5t-38 9zM707 418q-23 0 -38 -9t-24 -23.5t-12.5 -33.5t-3.5 -38v-199q0 -20 3.5 -38.5t12.5 -33.5t24 -24
t38 -9t38 9t24 24t12.5 33.5t3.5 38.5v199q0 19 -3.5 38t-12.5 33.5t-24 23.5t-38 9z" />
    <glyph glyph-name="guilsinglleft" unicode="&#x2039;" horiz-adv-x="157" 
d="M40 350l67 238h10l-67 -238l67 -237h-10z" />
    <glyph glyph-name="guilsinglright" unicode="&#x203a;" horiz-adv-x="157" 
d="M107 351l-67 238h10l67 -238l-67 -237h-10z" />
    <glyph glyph-name="fraction" unicode="&#x2044;" horiz-adv-x="366" 
d="M326 700l-276 -700h-10l276 700h10z" />
    <glyph glyph-name="zerosuperior" unicode="&#x2070;" horiz-adv-x="270" 
d="M40 686q0 23 5 44t16.5 36.5t29.5 24.5t44 9t44 -9t29.5 -24.5t16.5 -36.5t5 -44v-226q0 -23 -5 -44t-16.5 -36.5t-29.5 -24.5t-44 -9t-44 9t-29.5 24.5t-16.5 36.5t-5 44v226zM50 460q0 -42 19 -73t66 -31t66 31t19 73v226q0 42 -19 73t-66 31t-66 -31t-19 -73v-226z
" />
    <glyph glyph-name="foursuperior" unicode="&#x2074;" horiz-adv-x="290" 
d="M212 456v-105h-10v105h-162v10l159 329h13v-329h38v-10h-38zM51 466h151v312z" />
    <glyph glyph-name="fivesuperior" unicode="&#x2075;" horiz-adv-x="266" 
d="M50 458q0 -21 4 -39.5t14 -33t26 -23t39 -8.5q24 0 39.5 8.5t25.5 23t14 33t4 39.5v63q0 21 -4 39.5t-14 33t-25.5 23t-39.5 8.5t-47 -14.5t-29 -38.5v-4h-10l11 227h158v-10h-149l-9 -190q13 20 32.5 30t42.5 10q25 0 43 -9t29 -25t16 -36.5t5 -43.5v-63q0 -23 -5 -43.5
t-16 -36.5t-29 -25t-43 -9q-26 0 -43.5 9t-28.5 25t-16 36.5t-5 43.5v17h10v-17z" />
    <glyph glyph-name="sixsuperior" unicode="&#x2076;" horiz-adv-x="270" 
d="M135 800q26 0 43.5 -9t28.5 -24t16 -35.5t5 -43.5v-2h-10v2q0 42 -18 72t-65 30t-66 -31t-19 -73v-128q23 56 85 56q26 0 44 -9.5t29.5 -25t16.5 -36.5t5 -44v-39q0 -23 -5 -44t-16.5 -36.5t-29.5 -24.5t-44 -9t-44 9t-29.5 24.5t-16.5 36.5t-5 44v226q0 23 5 44
t16.5 36.5t29.5 24.5t44 9zM135 604q-47 0 -66 -31t-19 -74v-39q0 -42 19 -73t66 -31t66 31t19 73v39q0 43 -19 74t-66 31z" />
    <glyph glyph-name="sevensuperior" unicode="&#x2077;" horiz-adv-x="265" 
d="M214 785h-174v10h185v-9l-137 -435h-11z" />
    <glyph glyph-name="eightsuperior" unicode="&#x2078;" horiz-adv-x="276" 
d="M138 800q50 0 74 -30t24 -77v-15q0 -33 -13.5 -59t-46.5 -37q34 -10 47 -36.5t13 -59.5v-30q0 -48 -23.5 -79t-74.5 -31t-74.5 31t-23.5 79v30q0 33 13 59.5t47 36.5q-33 11 -46.5 37t-13.5 59v15q0 47 24 77t74 30zM138 790q-45 0 -66.5 -27t-21.5 -70v-15
q0 -44 21.5 -67.5t66.5 -23.5t66.5 23.5t21.5 67.5v15q0 43 -21.5 70t-66.5 27zM138 577q-46 0 -67 -23t-21 -68v-30q0 -44 20.5 -72t67.5 -28t67.5 28t20.5 72v30q0 45 -21 68t-67 23z" />
    <glyph glyph-name="ninesuperior" unicode="&#x2079;" horiz-adv-x="270" 
d="M135 800q26 0 44 -9t29.5 -24.5t16.5 -36.5t5 -44v-226q0 -23 -5 -44t-16.5 -36.5t-29.5 -24.5t-44 -9q-51 0 -73 32.5t-22 79.5v3h10v-3q0 -42 19 -72t66 -30t66 31t19 73v127q-11 -28 -33 -41.5t-52 -13.5q-26 0 -44 9t-29.5 24.5t-16.5 36.5t-5 44v40q0 23 5 44
t16.5 36.5t29.5 24.5t44 9zM135 790q-47 0 -66 -31t-19 -73v-40q0 -42 19 -73t66 -31t66 31t19 73v40q0 42 -19 73t-66 31z" />
    <glyph glyph-name="zeroinferior" unicode="&#x2080;" horiz-adv-x="270" 
d="M40 270q0 23 5 44t16.5 36.5t29.5 24.5t44 9t44 -9t29.5 -24.5t16.5 -36.5t5 -44v-226q0 -23 -5 -44t-16.5 -36.5t-29.5 -24.5t-44 -9t-44 9t-29.5 24.5t-16.5 36.5t-5 44v226zM50 44q0 -42 19 -73t66 -31t66 31t19 73v226q0 42 -19 73t-66 31t-66 -31t-19 -73v-226z" />
    <glyph glyph-name="oneinferior" unicode="&#x2081;" horiz-adv-x="165" 
d="M115 359q-11 -22 -30 -36t-44 -17l-1 10q27 3 45.5 20t26.5 43h13v-444h-10v424z" />
    <glyph glyph-name="twoinferior" unicode="&#x2082;" horiz-adv-x="266" 
d="M133 384q27 0 44.5 -9.5t28.5 -25.5t15.5 -37t4.5 -44q0 -31 -12.5 -55t-32 -46.5t-42 -44.5t-42 -47.5t-33 -56.5t-14.5 -71v-2h172v-10h-182v5q0 43 13 75.5t32.5 59t42.5 49t42.5 45t32.5 46t13 53.5q0 21 -4 40t-13.5 34t-25.5 23.5t-40 8.5t-40 -9t-25.5 -24
t-13.5 -34.5t-4 -40.5v-21h-10v21q0 23 4.5 44.5t15.5 38t29 26t44 9.5z" />
    <glyph glyph-name="threeinferior" unicode="&#x2083;" horiz-adv-x="266" 
d="M133 384q25 0 43 -9t29 -25t16 -36.5t5 -43.5v-11q0 -30 -15.5 -56t-44.5 -37q29 -8 44.5 -32.5t15.5 -55.5v-34q0 -23 -5 -43.5t-16 -36.5t-29 -25t-43 -9q-26 0 -43.5 9t-28.5 25t-16 36.5t-5 43.5v19h10v-19q0 -21 4 -40t14 -33t25.5 -22.5t39.5 -8.5t39.5 8.5
t25.5 22.5t14 33t4 40v34q0 34 -20 58.5t-56 24.5h-33v10h33q17 0 31.5 7.5t24.5 20t15 28.5t5 32v11q0 21 -4 39.5t-14 33t-25.5 23t-39.5 8.5t-39.5 -8.5t-25.5 -23t-14 -33t-4 -39.5v-12h-10v12q0 23 5 43.5t16 36.5t28.5 25t43.5 9z" />
    <glyph glyph-name="fourinferior" unicode="&#x2084;" horiz-adv-x="290" 
d="M212 35v-105h-10v105h-162v10l159 329h13v-329h38v-10h-38zM51 45h151v312z" />
    <glyph glyph-name="fiveinferior" unicode="&#x2085;" horiz-adv-x="266" 
d="M50 47q0 -21 4 -39.5t14 -33t26 -23t39 -8.5q24 0 39.5 8.5t25.5 23t14 33t4 39.5v63q0 21 -4 39.5t-14 33t-25.5 23t-39.5 8.5t-47 -14.5t-29 -38.5v-4h-10l11 227h158v-10h-149l-9 -190q13 20 32.5 30t42.5 10q25 0 43 -9t29 -25t16 -36.5t5 -43.5v-63q0 -23 -5 -43.5
t-16 -36.5t-29 -25t-43 -9q-26 0 -43.5 9t-28.5 25t-16 36.5t-5 43.5v17h10v-17z" />
    <glyph glyph-name="sixinferior" unicode="&#x2086;" horiz-adv-x="270" 
d="M135 384q26 0 43.5 -9t28.5 -24t16 -35.5t5 -43.5v-2h-10v2q0 42 -18 72t-65 30t-66 -31t-19 -73v-128q23 56 85 56q26 0 44 -9.5t29.5 -25t16.5 -36.5t5 -44v-39q0 -23 -5 -44t-16.5 -36.5t-29.5 -24.5t-44 -9t-44 9t-29.5 24.5t-16.5 36.5t-5 44v226q0 23 5 44
t16.5 36.5t29.5 24.5t44 9zM135 188q-47 0 -66 -31t-19 -74v-39q0 -42 19 -73t66 -31t66 31t19 73v39q0 43 -19 74t-66 31z" />
    <glyph glyph-name="seveninferior" unicode="&#x2087;" horiz-adv-x="265" 
d="M214 374h-174v10h185v-9l-137 -435h-11z" />
    <glyph glyph-name="eightinferior" unicode="&#x2088;" horiz-adv-x="276" 
d="M138 384q50 0 74 -30t24 -77v-15q0 -33 -13.5 -59t-46.5 -37q34 -10 47 -36.5t13 -59.5v-30q0 -48 -23.5 -79t-74.5 -31t-74.5 31t-23.5 79v30q0 33 13 59.5t47 36.5q-33 11 -46.5 37t-13.5 59v15q0 47 24 77t74 30zM138 374q-45 0 -66.5 -27t-21.5 -70v-15
q0 -44 21.5 -67.5t66.5 -23.5t66.5 23.5t21.5 67.5v15q0 43 -21.5 70t-66.5 27zM138 161q-46 0 -67 -23t-21 -68v-30q0 -44 20.5 -72t67.5 -28t67.5 28t20.5 72v30q0 45 -21 68t-67 23z" />
    <glyph glyph-name="nineinferior" unicode="&#x2089;" horiz-adv-x="270" 
d="M135 384q26 0 44 -9t29.5 -24.5t16.5 -36.5t5 -44v-226q0 -23 -5 -44t-16.5 -36.5t-29.5 -24.5t-44 -9q-51 0 -73 32.5t-22 79.5v3h10v-3q0 -42 19 -72t66 -30t66 31t19 73v127q-11 -28 -33 -41.5t-52 -13.5q-26 0 -44 9t-29.5 24.5t-16.5 36.5t-5 44v40q0 23 5 44
t16.5 36.5t29.5 24.5t44 9zM135 374q-47 0 -66 -31t-19 -73v-40q0 -42 19 -73t66 -31t66 31t19 73v40q0 42 -19 73t-66 31z" />
    <glyph glyph-name="Euro" unicode="&#x20ac;" horiz-adv-x="398" 
d="M77 528q0 35 7.5 67t24 56.5t43.5 39t66 14.5t65.5 -14.5t43 -39t24 -56.5t7.5 -67v-31h-10v31q0 33 -6.5 63t-21.5 53t-40 37t-62 14t-62 -14t-40.5 -37t-22 -53t-6.5 -63v-117h214v-10h-214v-98h214v-10h-214v-121q0 -33 6.5 -63t21.5 -53t40 -37t63 -14q37 0 62 14
t40 37t21.5 53t6.5 63v37h10v-37q0 -35 -7.5 -66.5t-24 -56.5t-43 -39.5t-65.5 -14.5t-66 14.5t-43.5 39.5t-24 56.5t-7.5 66.5v121h-47v10h47v98h-47v10h47v117z" />
    <glyph glyph-name="uni20B9" unicode="&#x20b9;" horiz-adv-x="371" 
d="M160 690q28 -10 48.5 -28.5t33 -42.5t18.5 -52t6 -56h65v-10h-65q-1 -33 -11 -62t-30 -50.5t-51.5 -33.5t-76.5 -12h-43l260 -343h-13l-261 345v8h57q42 0 71.5 11.5t48.5 31.5t28.5 47t10.5 58h-212v10h212q0 38 -10 70.5t-29.5 56.5t-49.5 38t-70 14h-53v10h287v-10
h-171z" />
    <glyph glyph-name="uni2117" unicode="&#x2117;" horiz-adv-x="754" 
d="M377 697q74 0 136 -26.5t106.5 -73t69.5 -110t25 -136.5t-25 -136.5t-69.5 -110t-106.5 -73t-136 -26.5t-136 26.5t-106.5 73t-69.5 110t-25 136.5t25 136.5t69.5 110t106.5 73t136 26.5zM377 687q-72 0 -132 -26t-103.5 -71t-67.5 -106.5t-24 -132.5t24 -132.5
t67.5 -107t103.5 -71.5t132 -26t132 26t103.5 71.5t67.5 107t24 132.5t-24 132.5t-67.5 106.5t-103.5 71t-132 26zM397 556q28 0 47 -9t30.5 -24.5t16.5 -37t5 -46.5v-24q0 -58 -26.5 -86t-85.5 -28h-72v-173h-10v428h95zM384 311q54 0 78 25t24 79v24q0 23 -4 42.5
t-14.5 34t-27.5 22.5t-43 8h-85v-235h72z" />
    <glyph glyph-name="trademark" unicode="&#x2122;" horiz-adv-x="576" 
d="M116 344v346h-99v10h207v-10h-98v-346h-10zM411 351h-12l-114 331v-338h-10v356h14l116 -335l117 335h14v-356h-10v338z" />
    <glyph glyph-name="uni2153" unicode="&#x2153;" horiz-adv-x="532" 
d="M115 680q-11 -22 -30 -36t-44 -17l-1 10q27 3 45.5 20t26.5 43h13v-444h-10v424zM372 700l-276 -700h-10l276 700h10zM399 449q25 0 43 -9t29 -25t16 -36.5t5 -43.5v-11q0 -30 -15.5 -55.5t-44.5 -36.5q31 -10 45.5 -34t14.5 -55v-34q0 -23 -5 -43.5t-16 -36.5t-29 -25
t-43 -9q-26 0 -43.5 9t-28.5 25t-16 36.5t-5 43.5v19h10v-19q0 -21 4 -40t14 -33t25.5 -22.5t39.5 -8.5t39.5 8.5t25.5 22.5t14 33t4 40v34q0 34 -20 58.5t-56 24.5h-33v10h33q17 0 31.5 7.5t24.5 20t15 28.5t5 32v11q0 21 -4 39.5t-14 33t-25.5 23t-39.5 8.5t-39.5 -8.5
t-25.5 -23t-14 -33t-4 -39.5v-12h-10v12q0 23 5 43.5t16 36.5t28.5 25t43.5 9z" />
    <glyph glyph-name="uni2154" unicode="&#x2154;" horiz-adv-x="600" 
d="M133 705q27 0 44.5 -9.5t28.5 -25.5t15.5 -37t4.5 -44q0 -31 -12.5 -55t-32 -46.5t-42 -44.5t-42 -47.5t-33 -56.5t-14.5 -71v-2h172v-10h-182v5q0 43 13 75.5t32.5 59t42.5 49t42.5 45t32.5 46t13 53.5q0 21 -4 40t-13.5 34t-25.5 23.5t-40 8.5t-40 -9t-25.5 -24
t-13.5 -34.5t-4 -40.5v-21h-10v21q0 23 4.5 44.5t15.5 38t29 26t44 9.5zM164 0h-10l276 700h10zM467 449q25 0 43 -9t29 -25t16 -36.5t5 -43.5v-11q0 -30 -15.5 -55.5t-44.5 -36.5q31 -10 45.5 -34t14.5 -55v-34q0 -23 -5 -43.5t-16 -36.5t-29 -25t-43 -9q-26 0 -43.5 9
t-28.5 25t-16 36.5t-5 43.5v19h10v-19q0 -21 4 -40t14 -33t25.5 -22.5t39.5 -8.5t39.5 8.5t25.5 22.5t14 33t4 40v34q0 34 -20 58.5t-56 24.5h-33v10h33q17 0 31.5 7.5t24.5 20t15 28.5t5 32v11q0 21 -4 39.5t-14 33t-25.5 23t-39.5 8.5t-39.5 -8.5t-25.5 -23t-14 -33
t-4 -39.5v-12h-10v12q0 23 5 43.5t16 36.5t28.5 25t43.5 9z" />
    <glyph glyph-name="oneeighth" unicode="&#x215b;" horiz-adv-x="547" 
d="M115 680q-11 -22 -30 -36t-44 -17l-1 10q27 3 45.5 20t26.5 43h13v-444h-10v424zM86 0l276 700h10l-276 -700h-10zM409 449q50 0 74 -30t24 -77v-15q0 -33 -13.5 -59t-46.5 -37q34 -10 47 -36.5t13 -59.5v-30q0 -48 -23.5 -79t-74.5 -31t-74.5 31t-23.5 79v30
q0 33 13 59.5t47 36.5q-33 11 -46.5 37t-13.5 59v15q0 47 24 77t74 30zM409 439q-45 0 -66.5 -27t-21.5 -70v-15q0 -44 21.5 -67.5t66.5 -23.5t66.5 23.5t21.5 67.5v15q0 43 -21.5 70t-66.5 27zM409 226q-46 0 -67 -23t-21 -68v-30q0 -44 20.5 -72t67.5 -28t67.5 28t20.5 72
v30q0 45 -21 68t-67 23z" />
    <glyph glyph-name="threeeighths" unicode="&#x215c;" horiz-adv-x="625" 
d="M133 705q25 0 43 -9t29 -25t16 -36.5t5 -43.5v-11q0 -30 -15.5 -55.5t-44.5 -36.5q31 -10 45.5 -34t14.5 -55v-34q0 -23 -5 -43.5t-16 -36.5t-29 -25t-43 -9q-26 0 -43.5 9t-28.5 25t-16 36.5t-5 43.5v19h10v-19q0 -21 4 -40t14 -33t25.5 -22.5t39.5 -8.5t39.5 8.5
t25.5 22.5t14 33t4 40v34q0 34 -20 58.5t-56 24.5h-33v10h33q17 0 31.5 7.5t24.5 20t15 28.5t5 32v11q0 21 -4 39.5t-14 33t-25.5 23t-39.5 8.5t-39.5 -8.5t-25.5 -23t-14 -33t-4 -39.5v-12h-10v12q0 23 5 43.5t16 36.5t28.5 25t43.5 9zM450 700l-276 -700h-10l276 700h10z
M487 449q50 0 74 -30t24 -77v-15q0 -33 -13.5 -59t-46.5 -37q34 -10 47 -36.5t13 -59.5v-30q0 -48 -23.5 -79t-74.5 -31t-74.5 31t-23.5 79v30q0 33 13 59.5t47 36.5q-33 11 -46.5 37t-13.5 59v15q0 47 24 77t74 30zM487 439q-45 0 -66.5 -27t-21.5 -70v-15
q0 -44 21.5 -67.5t66.5 -23.5t66.5 23.5t21.5 67.5v15q0 43 -21.5 70t-66.5 27zM487 226q-46 0 -67 -23t-21 -68v-30q0 -44 20.5 -72t67.5 -28t67.5 28t20.5 72v30q0 45 -21 68t-67 23z" />
    <glyph glyph-name="fiveeighths" unicode="&#x215d;" horiz-adv-x="623" 
d="M58 500q13 20 32.5 30t42.5 10q25 0 43 -9t29 -25t16 -36.5t5 -43.5v-63q0 -23 -5 -43.5t-16 -36.5t-29 -25t-43 -9q-26 0 -43.5 9t-28.5 25t-16 36.5t-5 43.5v17h10v-17q0 -21 4 -39.5t14 -33t26 -23t39 -8.5q24 0 39.5 8.5t25.5 23t14 33t4 39.5v63q0 21 -4 39.5
t-14 33t-25.5 23t-39.5 8.5t-47 -14.5t-29 -38.5v-4h-10l11 227h158v-10h-149zM438 700h10l-276 -700h-10zM485 449q50 0 74 -30t24 -77v-15q0 -33 -13.5 -59t-46.5 -37q34 -10 47 -36.5t13 -59.5v-30q0 -48 -23.5 -79t-74.5 -31t-74.5 31t-23.5 79v30q0 33 13 59.5t47 36.5
q-33 11 -46.5 37t-13.5 59v15q0 47 24 77t74 30zM485 439q-45 0 -66.5 -27t-21.5 -70v-15q0 -44 21.5 -67.5t66.5 -23.5t66.5 23.5t21.5 67.5v15q0 43 -21.5 70t-66.5 27zM485 226q-46 0 -67 -23t-21 -68v-30q0 -44 20.5 -72t67.5 -28t67.5 28t20.5 72v30q0 45 -21 68
t-67 23z" />
    <glyph glyph-name="seveneighths" unicode="&#x215e;" horiz-adv-x="524" 
d="M214 690h-174v10h185v-9l-137 -435h-11zM73 0h-10l276 700h10zM386 449q50 0 74 -30t24 -77v-15q0 -33 -13.5 -59t-46.5 -37q34 -10 47 -36.5t13 -59.5v-30q0 -48 -23.5 -79t-74.5 -31t-74.5 31t-23.5 79v30q0 33 13 59.5t47 36.5q-33 11 -46.5 37t-13.5 59v15
q0 47 24 77t74 30zM386 439q-45 0 -66.5 -27t-21.5 -70v-15q0 -44 21.5 -67.5t66.5 -23.5t66.5 23.5t21.5 67.5v15q0 43 -21.5 70t-66.5 27zM386 226q-46 0 -67 -23t-21 -68v-30q0 -44 20.5 -72t67.5 -28t67.5 28t20.5 72v30q0 45 -21 68t-67 23z" />
    <glyph glyph-name="minus" unicode="&#x2212;" horiz-adv-x="384" 
d="M344 355v-10h-304v10h304z" />
    <glyph glyph-name="infinity" unicode="&#x221e;" horiz-adv-x="547" 
d="M392 480q51 0 83 -26t32 -79q0 -54 -32 -79.5t-83 -25.5h-15q-37 0 -65 14.5t-38 51.5q-11 -37 -39 -51.5t-65 -14.5h-15q-51 0 -83 25.5t-32 79.5q0 53 32 79t83 26h15q37 0 65 -15t39 -51q10 36 38 51t65 15h15zM155 470q-47 0 -76 -23t-29 -72t29 -72t76 -23h15
q48 0 73.5 23.5t25.5 71.5t-25.5 71.5t-73.5 23.5h-15zM377 470q-48 0 -73.5 -23.5t-25.5 -71.5t25.5 -71.5t73.5 -23.5h15q47 0 76 23t29 72t-29 72t-76 23h-15z" />
    <glyph glyph-name="approxequal" unicode="&#x2248;" horiz-adv-x="397" 
d="M122 464q24 1 45 -9t41 -22t39.5 -22t39.5 -9q23 2 37.5 18t24.5 34l8 -4q-11 -21 -27 -38.5t-42 -19.5q-22 -1 -42.5 9t-40 22t-40 22t-42.5 9q-26 -1 -44 -16.5t-30 -35.5l-9 5q14 23 34 39.5t48 17.5zM122 306q24 0 45 -10t41 -22t39.5 -21.5t39.5 -8.5
q23 1 37.5 17.5t24.5 34.5l8 -4q-11 -21 -27 -38.5t-42 -19.5q-22 -1 -42.5 8.5t-40 21.5t-40 22t-42.5 10q-26 -1 -44 -16.5t-30 -35.5l-9 5q14 23 34 39.5t48 17.5z" />
    <glyph glyph-name="commaaccentcomb" unicode="&#xf6c3;" horiz-adv-x="0" 
d="M47 -174h-7l16 62h-1v78h10v-78z" />
    <glyph glyph-name="zero.alt" horiz-adv-x="373" 
d="M40 528q0 36 8 68.5t25.5 56.5t45.5 38t68 14t67.5 -14t45 -38t25.5 -56.5t8 -68.5v-355q0 -36 -8 -68.5t-25.5 -57t-45 -38.5t-67.5 -14t-68 14t-45.5 38.5t-25.5 57t-8 68.5v355zM50 173q0 -34 7 -64.5t23.5 -53.5t42.5 -36.5t64 -13.5t64 13.5t42 36.5t23 53.5t7 64.5
v355q0 34 -7 64.5t-23 53.5t-42 36.5t-64 13.5t-64 -13.5t-42.5 -36.5t-23.5 -53.5t-7 -64.5v-355z" />
    <glyph glyph-name="one.alt" horiz-adv-x="211" 
d="M40 598q45 5 74 33t43 70h14v-701h-10v683q-17 -39 -47.5 -64.5t-73.5 -30.5v10z" />
    <glyph glyph-name="two.alt" horiz-adv-x="367" 
d="M183 705q42 0 69.5 -14.5t44 -39t23.5 -57.5t7 -69q0 -48 -20 -86.5t-50.5 -74t-66 -70.5t-66.5 -76t-52 -91t-22 -114v-3h274v-10h-284v5q0 67 20.5 119t51.5 94.5t66.5 78t66.5 71t51.5 73t20.5 84.5q0 34 -6 65t-21.5 54.5t-41.5 37.5t-65 14q-38 0 -63.5 -14.5
t-41 -38.5t-22 -55.5t-6.5 -64.5v-33h-10v33q0 36 7 68.5t24 58t44 40.5t68 15z" />
    <glyph glyph-name="three.alt" 
d="M184 705q40 0 67.5 -14t44.5 -38.5t24.5 -56.5t7.5 -68v-17q0 -25 -7 -48t-20.5 -42t-32.5 -33.5t-43 -21.5q51 -13 77 -51t26 -89v-53q0 -36 -7.5 -68.5t-24.5 -56.5t-44.5 -38.5t-67.5 -14.5t-67.5 14.5t-44.5 38.5t-24.5 56.5t-7.5 68.5v29h10v-29q0 -34 6.5 -64.5
t22.5 -53.5t41.5 -36.5t63.5 -13.5t63.5 13.5t41.5 36.5t22.5 53.5t6.5 64.5v53q0 58 -31.5 94.5t-90.5 40.5h-53v9h53q28 2 50.5 14t38.5 31t24.5 44t8.5 52v17q0 34 -6.5 64.5t-22.5 53.5t-41.5 36.5t-63.5 13.5t-63.5 -13.5t-41.5 -36.5t-22.5 -53.5t-6.5 -64.5v-18h-10
v18q0 36 7.5 68t24.5 56.5t44.5 38.5t67.5 14z" />
    <glyph glyph-name="four.alt" horiz-adv-x="407" 
d="M304 170v-170h-10v170h-254v11l250 520h14v-521h63v-10h-63zM50 180h244v506z" />
    <glyph glyph-name="five.alt" 
d="M62 377q37 72 122 72q40 0 67.5 -14.5t44.5 -39t24.5 -56.5t7.5 -67v-99q0 -36 -7.5 -68t-24.5 -56.5t-44.5 -39t-67.5 -14.5t-67.5 14.5t-44.5 39t-24.5 56.5t-7.5 68v26h10v-26q0 -33 7 -63.5t22.5 -54t41 -37t63.5 -13.5q37 0 63 13.5t41.5 37t22.5 54t7 63.5v99
q0 33 -7 63.5t-22.5 53.5t-41.5 36.5t-63 13.5q-45 0 -76.5 -23t-47.5 -64v-6h-10l18 355h247v-10h-238z" />
    <glyph glyph-name="six.alt" horiz-adv-x="374" 
d="M187 705q40 0 67.5 -13.5t44.5 -37t24.5 -55t7.5 -67.5v-3h-10v3q0 34 -6.5 63.5t-22.5 52t-41.5 35.5t-63.5 13t-64 -13.5t-42.5 -36.5t-23.5 -53.5t-7 -64.5v-217q15 49 49.5 75t87.5 26q40 0 68 -14t45.5 -38.5t25.5 -56.5t8 -68v-62q0 -36 -8 -68.5t-25.5 -57
t-45.5 -38.5t-68 -14t-68 14t-45.5 38.5t-25.5 57t-8 68.5v355q0 36 8 68.5t25.5 56.5t45.5 38t68 14zM187 402q-38 0 -64 -13.5t-42.5 -36.5t-23.5 -53t-7 -64v-62q0 -34 7 -64.5t23.5 -53.5t42.5 -36.5t64 -13.5t64 13.5t42.5 36.5t23.5 53.5t7 64.5v62q0 34 -7 64
t-23.5 53t-42.5 36.5t-64 13.5z" />
    <glyph glyph-name="seven.alt" 
d="M317 691h-277v10h288v-11l-216 -690h-11z" />
    <glyph glyph-name="eight.alt" horiz-adv-x="383" 
d="M191 705q39 0 67.5 -12t47 -34t28 -52.5t9.5 -67.5v-23q0 -56 -24 -97.5t-82 -52.5q59 -12 82.5 -53.5t23.5 -99.5v-46q0 -37 -9 -68.5t-27.5 -54.5t-47 -36t-68.5 -13q-39 0 -67.5 13t-47 36t-27.5 54.5t-9 68.5v46q0 60 23.5 100t84.5 53q-59 11 -83.5 52t-24.5 98v23
q0 74 37 120t114 46zM191 696q-72 0 -106.5 -44t-34.5 -113v-23q0 -70 34.5 -108t106.5 -38t107 38t35 108v23q0 69 -34.5 113t-107.5 44zM191 360q-73 0 -107 -37.5t-34 -109.5v-46q0 -35 8 -64.5t25.5 -51.5t44 -34t63.5 -12t64 12t44.5 34t25.5 51.5t8 64.5v46
q0 72 -34 109.5t-108 37.5z" />
    <glyph glyph-name="nine.alt" horiz-adv-x="374" 
d="M187 706q40 0 68 -14t45.5 -38.5t25.5 -57t8 -68.5v-355q0 -36 -8 -68.5t-25.5 -57t-45.5 -38.5t-68 -14t-68 13.5t-45.5 37.5t-25.5 56t-8 68v4h10v-4q0 -34 7.5 -64t23.5 -52.5t42 -35.5t64 -13t64 13.5t42.5 36.5t23.5 53.5t7 64.5v217q-15 -49 -49.5 -75t-87.5 -26
q-40 0 -68 14t-45.5 38.5t-25.5 56.5t-8 68v62q0 36 8 68.5t25.5 57t45.5 38.5t68 14zM187 696q-38 0 -64 -13.5t-42.5 -36.5t-23.5 -53.5t-7 -64.5v-62q0 -34 7 -64t23.5 -53t42.5 -36.5t64 -13.5t64 13.5t42.5 36.5t23.5 53t7 64v62q0 34 -7 64.5t-23.5 53.5t-42.5 36.5
t-64 13.5z" />
    <glyph glyph-name="Edotaaccent" horiz-adv-x="0" 
 />
    <glyph glyph-name="edotaaccent" horiz-adv-x="0" 
 />
    <glyph glyph-name="lcute" horiz-adv-x="0" 
 />
    </font>
</defs>
</svg>
